<?xml version="1.0" standalone="no"?>
<!DOCTYPE svg PUBLIC "-//W3C//DTD SVG 1.1//EN" "http://www.w3.org/Graphics/SVG/1.1/DTD/svg11.dtd" >
<svg xmlns="http://www.w3.org/2000/svg" xmlns:xlink="http://www.w3.org/1999/xlink" version="1.1">
<metadata></metadata>
<defs>
<font id="sharp_sans_display_no1book" horiz-adv-x="1204" >
<font-face units-per-em="2048" ascent="1536" descent="-512" />
<missing-glyph horiz-adv-x="417" />
<glyph horiz-adv-x="0" />
<glyph unicode="&#xd;" horiz-adv-x="417" />
<glyph horiz-adv-x="0" />
<glyph horiz-adv-x="0" />
<glyph unicode=" "  horiz-adv-x="417" />
<glyph unicode="&#x09;" horiz-adv-x="417" />
<glyph unicode="&#xa0;" horiz-adv-x="417" />
<glyph unicode="!" horiz-adv-x="495" d="M145 84q0 43 31 72.5t72 29.5q45 0 74.5 -29.5t29.5 -72.5t-29.5 -73.5t-74.5 -30.5t-74 30.5t-29 73.5zM190 1255v240h119v-240q0 -102 -2 -228t-5 -250t-8 -231.5t-9 -172.5h-68q-4 66 -9 173t-9 231t-6.5 250t-2.5 228z" />
<glyph unicode="&#x22;" horiz-adv-x="585" d="M131 1323v172h105v-172q0 -31 -4.5 -75t-8.5 -87t-10 -81t-8 -56h-41q-4 18 -9 56t-10.5 81t-9.5 86t-4 76zM350 1323v172h105v-172q0 -31 -4.5 -75t-8.5 -87t-10 -81t-8 -56h-41q-4 18 -9 56t-10.5 81t-9.5 86t-4 76z" />
<glyph unicode="#" horiz-adv-x="1710" d="M98 418v112h414v451h-414v113h414v401h119v-401h444v401h119v-401h418v-113h-418v-451h418v-112h-418v-418h-119v418h-444v-418h-119v418h-414zM631 530h444v451h-444v-451z" />
<glyph unicode="$" d="M82 213l90 84q66 -86 158 -141.5t221 -65.5v658q-76 25 -151.5 53t-135 73.5t-97.5 109t-38 155.5q0 80 29.5 145.5t85 114.5t133.5 78.5t174 35.5v207h117v-209q150 -12 248 -71.5t163 -145.5l-94 -71q-49 72 -125 122t-192 64v-586q78 -25 156.5 -55.5t141 -78.5 t101.5 -117t39 -171q0 -80 -32 -152.5t-89 -129t-138 -93t-179 -44.5v-228h-117v228q-160 10 -274.5 72.5t-194.5 158.5zM250 1139q0 -59 24.5 -102.5t65.5 -76t96.5 -56t114.5 -44.5v551q-133 -10 -217 -82.5t-84 -189.5zM668 90q141 16 229 99t88 210q0 68 -26.5 117 t-70.5 85t-101.5 61.5t-118.5 46.5v-619z" />
<glyph unicode="%" horiz-adv-x="1757" d="M156 1176q0 70 26.5 132t72.5 108t107.5 73t133.5 27q70 0 132 -27t108 -73t73 -108.5t27 -131.5q0 -72 -27 -133.5t-73 -108.5t-108.5 -73.5t-131.5 -26.5q-72 0 -133.5 26.5t-107.5 73.5t-72.5 108.5t-26.5 133.5zM178 0l1284 1495h150l-1284 -1495h-150zM258 1176 q0 -49 19.5 -93.5t51 -77t74.5 -52t93 -19.5q49 0 92 19.5t75.5 52t51 76.5t18.5 94q0 49 -18.5 93t-51 76.5t-75.5 51t-92 18.5t-92.5 -18.5t-75 -51t-51 -76.5t-19.5 -93zM954 319q0 70 27 132.5t73 108.5t107.5 72.5t132.5 26.5q70 0 132.5 -26.5t108.5 -72.5 t72.5 -108.5t26.5 -132.5q0 -72 -26.5 -133t-72.5 -108t-108.5 -74t-132.5 -27q-72 0 -133 27t-107 74t-73 108t-27 133zM1057 319q0 -51 18.5 -95t51 -76.5t75.5 -51t92 -18.5t92.5 18.5t75 51t51 76.5t19.5 95q0 49 -19.5 93.5t-51 77t-75 51t-92.5 18.5t-92 -18.5 t-75.5 -51t-51 -77t-18.5 -93.5z" />
<glyph unicode="&#x26;" horiz-adv-x="1560" d="M102 463q0 156 80 272.5t211 184.5q-47 61 -71.5 122.5t-24.5 137.5q0 68 24.5 128t72.5 106t117 74t159 28q123 0 212 -53.5t136 -127.5l-96 -63q-37 57 -100.5 99t-151.5 42q-59 0 -106.5 -18.5t-80 -51t-50 -74.5t-17.5 -89t14 -89t45 -86t78 -94.5t113 -113.5 l483 -484q86 100 137 222t62 241h-293v111h407v-47q0 -74 -16 -152t-47 -155.5t-76 -152.5t-102 -140l241 -240h-159l-162 160q-94 -84 -209 -133.5t-250 -49.5q-156 0 -265.5 45.5t-179 115t-102.5 155.5t-33 170zM221 463q0 -66 26.5 -133.5t83 -122.5t143.5 -90t208 -35 q113 0 210 41t175 108l-496 496q-61 57 -110 111q-115 -59 -177.5 -152.5t-62.5 -222.5z" />
<glyph unicode="'" horiz-adv-x="366" d="M131 1323v172h105v-172q0 -31 -4.5 -75t-8.5 -87t-10 -81t-8 -56h-41q-4 18 -9 56t-10.5 81t-9.5 86t-4 76z" />
<glyph unicode="(" horiz-adv-x="858" d="M111 512q0 180 43 330.5t117.5 276.5t176 227.5t216.5 183.5l81 -90q-113 -78 -206 -172t-160.5 -209t-104 -251t-36.5 -296q0 -162 37.5 -298t106.5 -251t163 -209t207 -170l-80 -92q-117 82 -219.5 183.5t-178 226.5t-119.5 276.5t-44 333.5z" />
<glyph unicode=")" horiz-adv-x="858" d="M106 -416q113 76 207.5 170t163 209t106.5 251t38 298q0 160 -37 296t-104.5 249.5t-161 208t-205.5 172.5l82 92q115 -82 216 -183.5t176 -227.5t118 -277.5t43 -331.5q0 -182 -44.5 -332.5t-120 -276.5t-178 -227.5t-219.5 -181.5z" />
<glyph unicode="*" horiz-adv-x="897" d="M106 999l289 136l-289 137l54 92l262 -186l-29 317h111l-29 -313l258 180l53 -94l-290 -133l290 -134l-55 -94l-256 183l29 -320h-111l29 320l-262 -185z" />
<glyph unicode="+" horiz-adv-x="972" d="M109 696v103h327v325h103v-325h327v-103h-327v-329h-103v329h-327z" />
<glyph unicode="," horiz-adv-x="391" d="M66 -240l88 418h129l-123 -418h-94z" />
<glyph unicode="-" horiz-adv-x="972" d="M109 463v104h757v-104h-757z" />
<glyph unicode="." horiz-adv-x="391" d="M92 84q0 43 31 72.5t72 29.5q45 0 74.5 -29.5t29.5 -72.5t-29.5 -73.5t-74.5 -30.5t-74 30.5t-29 73.5z" />
<glyph unicode="/" horiz-adv-x="948" d="M57 0l709 1495h127l-709 -1495h-127z" />
<glyph unicode="0" d="M135 457v569q0 109 34 199t95.5 154.5t147.5 100.5t190 36q106 0 192.5 -37t148 -101.5t94 -154.5t32.5 -197v-577q0 -223 -125 -346t-342 -123q-223 0 -345 128t-122 349zM254 457q0 -174 90 -271.5t256 -97.5t258 95.5t92 265.5v577q0 180 -91 280.5t-255 100.5 q-166 0 -258 -103.5t-92 -277.5v-569z" />
<glyph unicode="1" d="M98 0v113h437v1128q-16 -27 -43 -47t-60 -34.5t-69.5 -23t-73.5 -8.5h-25v121h10q74 0 124.5 23.5t82 59.5t45 79t13.5 84h114v-1382h453v-113h-1008z" />
<glyph unicode="2" d="M129 0v121q0 88 37 161.5t96.5 139t135 124t153.5 113.5q74 51 143.5 103.5t124.5 107t89 112.5t34 126q0 66 -24.5 121t-68.5 95t-107.5 62.5t-139.5 22.5q-133 0 -225 -69.5t-146 -174.5l-102 56q31 63 78 116.5t106.5 93t132 62.5t154.5 23q104 0 189 -32t146.5 -87.5 t94.5 -130t33 -160.5t-38 -157.5t-97.5 -135t-136 -120t-152.5 -111.5q-74 -53 -143.5 -105.5t-123 -108t-86 -117t-32.5 -130.5v-8h831v-113h-956z" />
<glyph unicode="3" d="M96 186l94 78q66 -80 164.5 -129t229.5 -49q84 0 153.5 23.5t119.5 66.5t78 101.5t28 128.5q0 74 -31 132t-83 99t-123 62.5t-151 21.5h-153v110h153q158 0 255.5 78t97.5 211q0 135 -97.5 212t-252.5 77q-55 0 -109.5 -13.5t-102 -36t-86 -52t-63.5 -62.5l-96 70 q33 39 81 75.5t106.5 64.5t127 44.5t144.5 16.5q106 0 192 -29t146.5 -81t93 -125t32.5 -161q0 -123 -63 -211t-176 -133q125 -45 199.5 -137t74.5 -233q0 -94 -34.5 -172t-99 -134.5t-156.5 -87t-205 -30.5q-168 0 -289 53t-199 151z" />
<glyph unicode="4" d="M96 473l684 1022h119v-1024h215v-106h-215v-365h-119v365h-680zM223 471h557v829z" />
<glyph unicode="5" d="M119 223l108 72q57 -92 148.5 -148.5t220.5 -56.5q82 0 152.5 28.5t121 81t79 124t28.5 155.5q0 98 -34 171t-89 122t-126 72.5t-142 23.5q-104 0 -195.5 -46t-138.5 -117l-117 36l115 754h747v-111h-647l-82 -524q57 49 140.5 83t177.5 34q96 0 188 -29.5t164 -91 t116 -155t44 -222.5q0 -111 -37 -202t-103.5 -157.5t-158.5 -103t-203 -36.5q-160 0 -284 66.5t-193 176.5z" />
<glyph unicode="6" d="M106 469q0 86 27 167t72 146l467 713h143l-377 -569q41 16 86 24t92 8q102 0 190.5 -37.5t153 -103t101.5 -155t37 -193.5q0 -102 -38 -192.5t-104.5 -156t-157 -103t-196.5 -37.5q-109 0 -199 38.5t-156.5 104t-103.5 155t-37 191.5zM223 471q0 -78 30 -147.5t80 -121.5 t119.5 -83t149.5 -31t148.5 29.5t120 82t81 122t29.5 147.5q0 80 -29.5 148.5t-81 121t-121 82t-149.5 29.5q-78 0 -146.5 -29.5t-119.5 -81t-81 -121t-30 -147.5z" />
<glyph unicode="7" d="M100 1382v113h1004v-102l-639 -1393h-129l635 1382h-871z" />
<glyph unicode="8" d="M109 414q0 129 70.5 229t195.5 154q-100 49 -155.5 135t-55.5 196q0 82 30.5 153t88 123t138.5 82t181 30q98 0 179 -30t139.5 -82t90 -123t31.5 -153q0 -111 -57 -196.5t-156 -134.5q125 -53 196 -153.5t71 -229.5q0 -92 -34 -172t-96.5 -138.5t-153.5 -91t-208 -32.5 q-121 0 -213 32.5t-155.5 91t-95 138.5t-31.5 172zM223 414q0 -68 25.5 -127.5t75 -103.5t120 -69.5t160.5 -25.5q88 0 159 25.5t120 70.5t74.5 103.5t25.5 126.5q0 66 -24.5 125t-72.5 104t-120 71.5t-164 26.5t-162.5 -26.5t-119 -71.5t-73 -104.5t-24.5 -124.5zM272 1128 q0 -59 21.5 -110t63.5 -89t103.5 -60.5t141.5 -22.5t141.5 22.5t103.5 60.5t63.5 89t21.5 110t-22.5 110.5t-64.5 90.5t-103.5 60.5t-139.5 21.5t-138.5 -21.5t-103.5 -60.5t-65.5 -90t-22.5 -111z" />
<glyph unicode="9" d="M106 1026q0 102 39 191.5t105.5 156t157 104.5t194.5 38q106 0 196.5 -39t157 -104.5t104.5 -156t38 -190.5q0 -86 -27 -167t-72 -146l-467 -713h-143l373 567q-80 -31 -174 -30q-102 0 -189.5 37.5t-153 103t-102.5 155t-37 193.5zM223 1026q0 -80 30 -148.5t82 -120.5 t121.5 -82t147.5 -30t146.5 30t120 81t81 120.5t29.5 147.5t-29.5 147.5t-81 122t-120 83t-146.5 30.5t-147.5 -29.5t-121.5 -82t-82 -122t-30 -147.5z" />
<glyph unicode=":" horiz-adv-x="391" d="M92 84q0 43 31 72.5t72 29.5q45 0 74.5 -29.5t29.5 -72.5t-29.5 -73.5t-74.5 -30.5t-74 30.5t-29 73.5zM92 942q0 43 31 72.5t72 29.5q45 0 74.5 -29.5t29.5 -72.5t-29.5 -73.5t-74.5 -30.5t-74 30.5t-29 73.5z" />
<glyph unicode=";" horiz-adv-x="391" d="M66 -240l88 418h129l-123 -418h-94zM92 942q0 43 31 72.5t72 29.5q45 0 74.5 -29.5t29.5 -72.5t-29.5 -73.5t-74.5 -30.5t-74 30.5t-29 73.5z" />
<glyph unicode="&#x3c;" horiz-adv-x="972" d="M109 700v101l757 291v-107l-635 -233l635 -242v-109z" />
<glyph unicode="=" horiz-adv-x="972" d="M109 528v101h757v-101h-757zM109 858v103h757v-103h-757z" />
<glyph unicode="&#x3e;" horiz-adv-x="972" d="M109 401v109l634 242l-634 233v107l757 -291v-101z" />
<glyph unicode="?" horiz-adv-x="1103" d="M115 1262q53 106 164.5 180t273.5 74q92 0 171 -27t137.5 -74t91 -113.5t32.5 -148.5q0 -96 -29.5 -157.5t-75.5 -108.5t-98.5 -88t-98.5 -96.5t-75.5 -134.5t-29.5 -201v-17h-111v17q0 135 29.5 223t73.5 149.5t96.5 104.5t96.5 86t73.5 94t29.5 131q0 57 -24.5 104.5 t-66.5 81t-99.5 52t-124.5 18.5q-129 0 -207 -54t-125 -145zM420 84q0 43 30.5 72.5t71.5 29.5q45 0 75 -29.5t30 -72.5t-30 -73.5t-75 -30.5t-73.5 30.5t-28.5 73.5z" />
<glyph unicode="@" horiz-adv-x="1753" d="M111 512q0 160 62.5 299t170 243.5t248.5 165t301 60.5q164 0 301 -57.5t236.5 -152.5t154.5 -220t55 -260q0 -84 -19 -162t-59 -137.5t-98.5 -94t-136.5 -34.5q-92 0 -148.5 40t-78.5 101q-35 -59 -104.5 -103t-170.5 -44q-61 0 -121.5 24.5t-106.5 71.5t-71.5 116.5 t-15.5 159.5q12 92 47 161t86 114t111.5 67.5t124.5 22.5q86 0 146 -37t91 -92q4 39 6 62.5t4 35.5q2 14 2 19h113l-41 -371q-14 -131 21.5 -185.5t113.5 -54.5q45 0 82 23.5t62.5 66.5t39 101.5t13.5 126.5q0 115 -47 220t-131 187t-202 130.5t-261 48.5q-137 0 -258 -52.5 t-211 -142.5t-142.5 -210t-52.5 -257t50.5 -257t137.5 -210t204.5 -142.5t254.5 -52.5q143 0 263 53.5t213 147.5l82 -71q-98 -102 -243 -169t-315 -67q-160 0 -299 60.5t-242.5 164t-162.5 243.5t-59 300zM633 528q-8 -55 5 -103t42 -84t72 -57.5t96 -21.5q55 0 97 21.5 t73 58.5t49 85t23 101q6 51 -3.5 99.5t-34 84.5t-63.5 57.5t-92 21.5q-98 0 -175 -70t-89 -193z" />
<glyph unicode="A" horiz-adv-x="1429" d="M76 0l575 1495h127l576 -1495h-125l-162 418h-707l-159 -418h-125zM403 530h621l-309 807z" />
<glyph unicode="B" horiz-adv-x="1308" d="M154 0v1495h571q96 0 176 -28.5t138.5 -80t90 -122t31.5 -156.5q0 -113 -54 -201t-157 -131q117 -43 182.5 -138t65.5 -226q0 -92 -32.5 -168t-92 -130.5t-140.5 -84t-179 -29.5h-600zM272 109h480q72 0 132 23.5t103 63.5t67.5 95t24.5 121q0 133 -88 219t-241 86h-478 v-608zM272 825h471q70 0 125.5 21.5t94 59.5t59 90.5t20.5 111.5t-23.5 110.5t-66.5 88t-101 58t-128 21.5h-451v-561z" />
<glyph unicode="C" horiz-adv-x="1630" d="M109 748q0 160 60 299t164.5 243.5t244 165t299.5 60.5q104 0 201.5 -28t182.5 -77t154.5 -118.5t120.5 -153.5l-102 -60q-84 145 -229.5 235.5t-327.5 90.5q-137 0 -255 -52.5t-205 -141.5t-137.5 -208.5t-50.5 -254.5t50.5 -255t137.5 -209t204.5 -140.5t255.5 -51.5 q197 0 346 95.5t229 248.5l104 -53q-49 -90 -118.5 -165t-156.5 -128t-189 -81.5t-215 -28.5q-160 0 -299.5 60t-244 164.5t-164.5 244t-60 299.5z" />
<glyph unicode="D" horiz-adv-x="1456" d="M154 0v1495h419q168 0 310.5 -57.5t246 -157.5t161 -236.5t57.5 -295.5q0 -160 -59.5 -297.5t-163 -236.5t-245 -156.5t-302.5 -57.5h-424zM272 111h297q141 0 261 48t208 134t138.5 202.5t50.5 252.5q0 135 -48.5 251.5t-136.5 202.5t-208.5 135t-268.5 49h-293v-1275z " />
<glyph unicode="E" horiz-adv-x="1193" d="M154 0v1495h915v-113h-797v-577h797v-111h-797v-581h797v-113h-915z" />
<glyph unicode="F" horiz-adv-x="1120" d="M154 0v1495h845v-113h-727v-577h727v-113h-727v-692h-118z" />
<glyph unicode="G" horiz-adv-x="1740" d="M109 748q0 160 59 299t163.5 243.5t247 165t310.5 60.5q217 0 388 -101.5t271 -275.5l-102 -60q-82 150 -226.5 238t-330.5 88q-145 0 -266 -52.5t-209 -141.5t-136.5 -208.5t-48.5 -254.5t48.5 -255t135.5 -209t206.5 -140.5t261.5 -51.5q141 0 252.5 44t193.5 122 t130 183.5t61 228.5h-648v110h766v-30q0 -156 -51 -296.5t-148.5 -246t-237.5 -166.5t-318 -61q-164 0 -305.5 60t-245 164.5t-162.5 244t-59 299.5z" />
<glyph unicode="H" horiz-adv-x="1409" d="M154 0v1495h118v-688h865v688h118v-1495h-118v694h-865v-694h-118z" />
<glyph unicode="I" horiz-adv-x="464" d="M174 0v1495h117v-1495h-117z" />
<glyph unicode="J" horiz-adv-x="974" d="M76 190l106 68q35 -76 100.5 -123t163.5 -47q123 0 193 80t70 217v1110h118v-1108q0 -188 -100 -297.5t-278 -109.5q-135 0 -230.5 57t-142.5 153z" />
<glyph unicode="K" horiz-adv-x="1329" d="M156 0v1495h116v-895l783 895h145l-520 -600l594 -895h-137l-541 813l-324 -371v-442h-116z" />
<glyph unicode="L" horiz-adv-x="1091" d="M154 0v1495h118v-1382h711v-113h-829z" />
<glyph unicode="M" horiz-adv-x="1773" d="M154 0v1495h116l607 -840l628 840h113v-1495h-117v1307l-627 -846l-602 827v-1288h-118z" />
<glyph unicode="N" horiz-adv-x="1519" d="M154 0v1495h131l962 -1311v1311h119v-1495h-127l-967 1317v-1317h-118z" />
<glyph unicode="O" horiz-adv-x="1753" d="M111 748q0 160 61 299t165.5 243.5t244 165t297.5 60.5q160 0 299 -60.5t242.5 -165t162.5 -244t59 -298.5q0 -158 -60 -297.5t-164.5 -244t-243.5 -165.5t-297 -61q-170 0 -310.5 59t-242 162.5t-157.5 244t-56 302.5zM231 748q0 -135 49.5 -255t136.5 -209t205 -140.5 t255 -51.5t254.5 51.5t204.5 140.5t137.5 208.5t50.5 255.5q0 135 -49.5 253.5t-136.5 207.5t-204.5 141.5t-254.5 52.5t-255 -52.5t-205 -141.5t-137.5 -207.5t-50.5 -253.5z" />
<glyph unicode="P" horiz-adv-x="1263" d="M154 0v1495h452q123 0 224.5 -39t173 -106.5t110.5 -160.5t39 -202t-39 -202t-110.5 -161.5t-173 -107.5t-224.5 -39h-334v-477h-118zM272 588h328q100 0 180 30.5t136.5 84t86 127t29.5 157.5q0 86 -29.5 159t-86 127t-136.5 83.5t-180 29.5h-328v-798z" />
<glyph unicode="Q" horiz-adv-x="1753" d="M111 748q0 160 61 299t165.5 243.5t244 165t297.5 60.5q160 0 299 -60.5t242.5 -165t162.5 -244t59 -298.5q0 -154 -60 -293.5t-165 -243.5l180 -211h-151l-115 135q-98 -74 -212.5 -114.5t-241.5 -40.5q-170 0 -310.5 59t-242 162.5t-157.5 244t-56 302.5zM231 748 q0 -135 49.5 -255t136.5 -209t205 -140.5t255 -51.5q111 0 207 33t176 92l-336 399h147l275 -321q84 88 131 203.5t47 249.5q0 135 -49.5 253.5t-136.5 207.5t-204.5 141.5t-254.5 52.5t-255 -52.5t-205 -141.5t-137.5 -207.5t-50.5 -253.5z" />
<glyph unicode="R" horiz-adv-x="1220" d="M154 0v1495h467q104 0 194 -37t156.5 -100.5t103.5 -148.5t37 -181q0 -74 -23.5 -143.5t-66.5 -127t-103.5 -101.5t-134.5 -66l336 -590h-133l-311 557h-404v-557h-118zM272 666h338q86 0 156 29.5t121 80.5t78.5 115.5t27.5 136.5q0 76 -27.5 141.5t-77.5 113.5 t-121 75.5t-155 27.5h-340v-720z" />
<glyph unicode="S" horiz-adv-x="1140" d="M59 225l101 78q72 -104 170 -159.5t227 -55.5q76 0 141.5 22.5t114.5 63.5t77 99.5t28 129.5q0 76 -32 128.5t-85 89t-122 62.5t-142 50q-78 25 -153 55.5t-134.5 75.5t-96 110.5t-36.5 162.5q0 82 33.5 151.5t94 119.5t141.5 79t175 29q152 0 259.5 -55.5t180.5 -149.5 l-92 -72q-59 84 -144 128t-204 44q-68 0 -127 -20.5t-103 -56.5t-68.5 -86t-24.5 -111q0 -72 30.5 -121t82.5 -83t120 -58.5t139 -49.5q78 -27 155 -57.5t137.5 -78.5t97 -116.5t36.5 -169.5q0 -88 -35.5 -164.5t-99 -134t-153 -91t-193.5 -33.5q-170 0 -291 66.5 t-205 178.5z" />
<glyph unicode="T" horiz-adv-x="1249" d="M98 1386v109h1053v-109h-467v-1386h-119v1386h-467z" />
<glyph unicode="U" horiz-adv-x="1312" d="M147 487v1008h119v-1014q0 -80 30 -151.5t82 -123.5t123.5 -83t153.5 -31t154 31t124 84t83 123.5t31 152.5v1012h118v-1008q0 -106 -39 -199t-107.5 -162t-161.5 -107.5t-202 -38.5t-202 38.5t-160.5 107.5t-106.5 162t-39 199z" />
<glyph unicode="V" horiz-adv-x="1394" d="M76 1495h123l497 -1329l498 1329h125l-563 -1495h-119z" />
<glyph unicode="W" horiz-adv-x="2195" d="M86 1495h125l381 -1313l446 1313h113l442 -1313l396 1313h122l-456 -1495h-121l-442 1311l-445 -1311h-121z" />
<glyph unicode="X" horiz-adv-x="1335" d="M74 0l526 772l-487 723h135l422 -625l422 625h133l-486 -717l523 -778h-134l-460 678l-461 -678h-133z" />
<glyph unicode="Y" horiz-adv-x="1253" d="M68 1495h133l426 -672l426 672h133l-498 -780v-715h-119v711z" />
<glyph unicode="Z" horiz-adv-x="1228" d="M119 0v109l850 1273h-817v113h956v-109l-850 -1273h854v-113h-993z" />
<glyph unicode="[" horiz-adv-x="774" d="M109 -471v1966h559v-111h-441v-1744h441v-111h-559z" />
<glyph unicode="\" horiz-adv-x="948" d="M57 1495h127l709 -1495h-127z" />
<glyph unicode="]" horiz-adv-x="774" d="M109 -362h440v1746h-440v111h559v-1966h-559v109z" />
<glyph unicode="^" horiz-adv-x="1028" d="M215 1057l252 342h90l258 -342h-123l-180 239l-174 -239h-123z" />
<glyph unicode="_" horiz-adv-x="1110" d="M109 -20h895v-103h-895v103z" />
<glyph unicode="`" horiz-adv-x="1028" d="M301 1475h152l245 -318h-110z" />
<glyph unicode="a" horiz-adv-x="1304" d="M102 512q0 111 40 207t111 169t167 114.5t209 41.5q57 0 117.5 -15t116 -45t102.5 -74t77 -99v213h117v-1024h-117v213q-31 -55 -77.5 -99t-102 -74t-116 -45t-117.5 -15q-113 0 -209 41.5t-167 114.5t-111 169t-40 207zM219 512q0 -88 33 -166t89 -135t132 -91t162 -34 q88 0 165 34t134 91t89 135t32 166t-32 165t-89 135t-134 92t-165 34q-86 0 -162 -34t-132 -91t-89 -135t-33 -166z" />
<glyph unicode="b" horiz-adv-x="1302" d="M147 0v1495h115v-682q31 55 78 98t101.5 73t113.5 45t119 15q113 0 210 -41.5t167.5 -114.5t110.5 -169t40 -207t-41 -207t-111.5 -169t-166.5 -114.5t-209 -41.5q-59 0 -119.5 15t-115 45t-101.5 74t-78 99v-213h-113zM248 512q0 -88 31.5 -166t89 -135t134.5 -91 t167 -34q86 0 161.5 34t132 91t88 135t31.5 166t-31.5 166t-88 135t-132 91t-161.5 34q-90 0 -167 -34t-134.5 -92t-89 -135t-31.5 -165z" />
<glyph unicode="c" horiz-adv-x="1214" d="M102 512q0 113 41 211t114 169t170 111.5t210 40.5q84 0 158.5 -22.5t137 -63t111 -98t76.5 -127.5l-106 -45q-51 117 -148.5 183.5t-230.5 66.5q-88 0 -164 -34t-132 -91t-88 -135t-32 -166t32 -166t89 -135t134 -91t167 -34q137 0 233.5 73.5t143.5 186.5l108 -45 q-59 -141 -185 -231t-302 -90q-115 0 -213 41.5t-170 113.5t-113 169t-41 208z" />
<glyph unicode="d" horiz-adv-x="1302" d="M102 512q0 111 40 207t111 169t167 114.5t209 41.5q57 0 117.5 -15t116 -45t102.5 -74t77 -99v684h113v-1495h-113v213q-31 -55 -77.5 -99t-102 -74t-116 -45t-117.5 -15q-113 0 -209 41.5t-167 114.5t-111 169t-40 207zM219 512q0 -88 33 -166t89 -135t132 -91t162 -34 q88 0 165 34t134 91t89 135t32 166t-32 165t-89 135t-134 92t-165 34q-86 0 -162 -34t-132 -91t-89 -135t-33 -166z" />
<glyph unicode="e" horiz-adv-x="1259" d="M102 506q0 113 40 212t111 171t168 113.5t212 41.5q113 0 208 -37.5t165.5 -106.5t110.5 -165t40 -211v-51h-944q6 -84 40 -155.5t89 -124t131 -81t166 -28.5q143 0 239.5 68.5t147.5 187.5l102 -49q-70 -147 -188.5 -229t-298.5 -82q-125 0 -224.5 39.5t-169 110.5 t-107.5 167t-38 209zM217 580h819q-8 80 -40.5 146.5t-85 114.5t-122 73.5t-155.5 25.5q-80 0 -150.5 -27.5t-126 -76t-91.5 -114t-48 -142.5z" />
<glyph unicode="f" horiz-adv-x="702" d="M68 920v104h176v98q0 111 17.5 182.5t59 114.5t112.5 59.5t179 16.5h11v-109q-84 0 -135.5 -9t-80 -37.5t-38 -81t-9.5 -138.5v-96h263v-104h-263v-920h-116v920h-176z" />
<glyph unicode="g" horiz-adv-x="1304" d="M102 512q0 111 40 207t111 169t167 114.5t209 41.5q57 0 117.5 -15t116 -45t102.5 -74t77 -99v213h117v-1004q0 -119 -36 -214t-102.5 -162.5t-159.5 -104.5t-208 -37q-190 0 -307 77t-172 206l115 39q41 -100 129 -158.5t235 -58.5q90 0 163 29.5t123 83t77.5 129 t27.5 167.5v201q-31 -57 -77.5 -101t-102 -75t-116 -46t-119.5 -15q-113 0 -209 41.5t-167 114.5t-111 169t-40 207zM219 512q0 -88 33 -166t89 -135t132 -91t162 -34q88 0 165 34t134 91t89 135t32 166t-32 165t-89 135t-134 92t-165 34q-86 0 -162 -34t-132 -91t-89 -135 t-33 -166z" />
<glyph unicode="h" horiz-adv-x="1234" d="M147 0v1495h115v-659q53 92 152.5 150t228.5 58q102 0 185 -32.5t142.5 -93t92.5 -147.5t33 -198v-573h-119v573q0 166 -90 265.5t-260 99.5q-78 0 -143.5 -27.5t-115 -77t-77 -117t-27.5 -145.5v-571h-117z" />
<glyph unicode="i" horiz-adv-x="407" d="M100 1346q0 43 31 72.5t72 29.5q45 0 74.5 -29.5t29.5 -72.5t-29.5 -74t-74.5 -31t-74 31t-29 74zM145 0v1024h117v-1024h-117z" />
<glyph unicode="j" horiz-adv-x="407" d="M-119 -356q82 0 133.5 9t80 36.5t39.5 79t11 137.5v1118h117v-1120q0 -109 -17.5 -180.5t-59.5 -114.5t-111.5 -60.5t-173.5 -17.5h-19v113zM100 1346q0 43 31 72.5t72 29.5q45 0 74.5 -29.5t29.5 -72.5t-29.5 -74t-74.5 -31t-74 31t-29 74z" />
<glyph unicode="k" horiz-adv-x="1073" d="M147 0v1495h115v-1075l582 604h149l-418 -430l437 -594h-138l-382 524l-230 -239v-285h-115z" />
<glyph unicode="l" horiz-adv-x="413" d="M147 0v1495h119v-1495h-119z" />
<glyph unicode="m" horiz-adv-x="1998" d="M145 0v1024h113v-180q49 92 141.5 146t218.5 54q152 0 249.5 -65.5t138.5 -175.5q47 109 151.5 175t245.5 66q106 0 191 -32.5t144.5 -92t90.5 -142.5t31 -183v-594h-117v602q0 74 -23.5 136.5t-68.5 106.5t-107.5 69.5t-142.5 25.5q-72 0 -135.5 -23.5t-109.5 -68.5 t-72.5 -107.5t-26.5 -142.5v-598h-117v621q0 145 -88 232t-242 87q-76 0 -139 -25.5t-110.5 -72.5t-74 -113.5t-26.5 -148.5v-580h-115z" />
<glyph unicode="n" horiz-adv-x="1230" d="M145 0v1024h113v-193q53 94 151.5 153.5t229.5 59.5q102 0 186 -32.5t143.5 -93t91.5 -147.5t32 -198v-573h-117v573q0 166 -91 265.5t-259 99.5q-78 0 -144.5 -27.5t-116 -77t-77 -117t-27.5 -145.5v-571h-115z" />
<glyph unicode="o" horiz-adv-x="1267" d="M102 512q0 111 41 208t114 169t169 113.5t207 41.5t208 -41.5t168.5 -113.5t113.5 -169t42 -208t-42 -207t-113.5 -169t-169 -114.5t-207.5 -41.5q-117 0 -214 41.5t-168 113.5t-110 169t-39 208zM219 512q0 -88 32 -166t88 -135t132 -91t162 -34t161.5 34t132 91 t89.5 135t33 166t-33 166t-89.5 135t-132 91t-161.5 34t-162 -34t-132 -91t-88 -135t-32 -166z" />
<glyph unicode="p" horiz-adv-x="1300" d="M145 -471v1495h111v-215q31 55 77 99t101 75t116.5 46t121.5 15q113 0 209 -41.5t166.5 -114.5t110.5 -169t40 -207t-40 -207t-110.5 -169t-166.5 -114.5t-209 -41.5q-63 0 -125 14t-116 43t-98 71t-75 97v-676h-113zM246 512q0 -88 31.5 -166t89 -135t133.5 -91t166 -34 q86 0 161.5 34t132 91t88 135t31.5 166t-31.5 166t-88 135t-132 91t-161.5 34q-90 0 -166 -34t-133.5 -92t-89 -135t-31.5 -165z" />
<glyph unicode="q" horiz-adv-x="1300" d="M102 512q0 111 40 207t111 169t167 114.5t209 41.5q57 0 117.5 -15t116 -45t102.5 -74t77 -99v213h113v-1495h-113v676q-61 -111 -175.5 -168t-237.5 -57q-113 0 -209 41.5t-167 114.5t-111 169t-40 207zM219 512q0 -88 33 -166t89 -135t132 -91t162 -34q88 0 165 34 t134 91t89 135t32 166t-32 165t-89 135t-134 92t-165 34q-86 0 -162 -34t-132 -91t-89 -135t-33 -166z" />
<glyph unicode="r" horiz-adv-x="784" d="M145 0v1024h115v-193q47 94 140.5 143.5t226.5 49.5h63v-109h-63q-193 0 -279 -95t-86 -285v-535h-117z" />
<glyph unicode="s" horiz-adv-x="956" d="M51 170l94 78q55 -76 138.5 -121t191.5 -45q133 0 200.5 60.5t67.5 144.5q0 47 -24.5 77.5t-66.5 51t-95 34t-108 27.5q-61 14 -123 34.5t-110 52.5t-79 79t-31 119q0 57 26 108.5t73 90t113.5 62.5t148.5 24q115 0 211 -41t162 -113l-88 -72q-53 59 -124 92t-161 33 q-119 0 -182.5 -52t-63.5 -130q0 -45 24.5 -76t64.5 -51.5t92.5 -34.5t107.5 -29q63 -16 125.5 -34.5t112 -50t80 -80t30.5 -121.5q0 -53 -23.5 -107.5t-70.5 -98.5t-120 -72.5t-173 -28.5q-135 0 -243.5 50t-176.5 140z" />
<glyph unicode="t" horiz-adv-x="714" d="M66 920v104h176v240l118 69v-309h261v-104h-261v-545q0 -86 10.5 -138.5t39 -81t80 -37.5t131.5 -9v-109h-17q-106 0 -176 16.5t-112 59.5t-58 114.5t-16 182.5v547h-176z" />
<glyph unicode="u" horiz-adv-x="1214" d="M139 451v573h117v-573q0 -166 87 -265.5t255 -99.5q76 0 141.5 27.5t112.5 77t73.5 117t26.5 145.5v571h117v-1024h-115v195q-49 -96 -143 -155.5t-223 -59.5q-217 0 -333 124.5t-116 346.5z" />
<glyph unicode="v" horiz-adv-x="1056" d="M68 1024h129l335 -874l334 874h123l-405 -1024h-113z" />
<glyph unicode="w" horiz-adv-x="1730" d="M80 1024h125l270 -856l334 856h111l329 -850l279 850h123l-355 -1024h-96l-338 858l-336 -858h-116z" />
<glyph unicode="x" horiz-adv-x="1083" d="M57 0l412 522l-393 502h139l326 -418l327 418h140l-396 -502l414 -522h-143l-342 434l-340 -434h-144z" />
<glyph unicode="y" horiz-adv-x="1144" d="M72 1024h129l387 -834l360 834h127l-661 -1497h-125l235 530z" />
<glyph unicode="z" horiz-adv-x="1097" d="M100 0v111l744 804h-719v109h864v-111l-745 -807h753v-106h-897z" />
<glyph unicode="{" horiz-adv-x="829" d="M78 453v112q63 0 102 11.5t58.5 38t25.5 68.5t6 101v267q0 125 22.5 210t75 137t138.5 74.5t215 22.5h22v-106q-109 0 -178 -15.5t-109 -54.5t-54.5 -104.5t-14.5 -165.5v-267q0 -111 -27.5 -177t-103.5 -95q78 -29 104.5 -95.5t26.5 -176.5v-263q0 -100 14.5 -165.5 t54.5 -104.5t109.5 -54.5t177.5 -15.5v-106h-22q-129 0 -215 22.5t-138.5 74.5t-75 137t-22.5 210v263q0 59 -6 101t-25.5 67.5t-58.5 37t-102 11.5z" />
<glyph unicode="|" horiz-adv-x="389" d="M135 -471v1966h119v-1966h-119z" />
<glyph unicode="}" horiz-adv-x="829" d="M88 -362q109 0 178.5 15t109.5 53t54 103.5t14 165.5v263q0 111 26 177t103 95q-74 29 -101.5 95.5t-27.5 176.5v267q0 100 -14 164.5t-54 103.5t-109.5 54t-178.5 15v109h23q129 0 215 -22.5t138 -74.5t74.5 -137t22.5 -210v-267q0 -59 6 -101t25.5 -68.5t57.5 -38 t104 -11.5v-112q-66 0 -104 -11.5t-57.5 -37t-25.5 -67.5t-6 -101v-263q0 -125 -22.5 -210t-74.5 -137t-138 -74.5t-215 -22.5h-23v109z" />
<glyph unicode="~" horiz-adv-x="931" d="M137 1143q4 94 55.5 150.5t131.5 56.5q53 0 89 -16.5t70 -39.5q33 -18 65 -37.5t68 -19.5q82 0 95 102h94q-4 -94 -52 -150t-135 -56q-59 0 -101 22.5t-79 44.5q-29 16 -55.5 29.5t-58.5 13.5q-76 0 -88 -100h-99z" />
<glyph unicode="&#xa1;" horiz-adv-x="495" d="M145 942q0 43 31 72.5t72 29.5q45 0 74.5 -29.5t29.5 -72.5t-29.5 -73.5t-74.5 -30.5t-74 30.5t-29 73.5zM190 -231q0 102 2.5 229t5.5 250t7 230.5t8 172.5h70q4 -66 9 -173t9 -230t6 -250t2 -229v-240h-119v240z" />
<glyph unicode="&#xa2;" d="M111 512q0 113 34.5 206t96 161.5t145.5 109.5t180 51v250h119v-250q143 -14 257 -96t161 -217l-107 -45q-45 127 -142 191.5t-226 64.5q-84 0 -157 -29.5t-127 -85t-85 -134.5t-31 -177t31 -177t85 -134.5t128 -85t160 -29.5q135 0 232.5 70.5t138.5 193.5l108 -45 q-51 -141 -161.5 -225t-264.5 -98v-248h-119v250q-100 10 -184 52t-144.5 110.5t-94 160.5t-33.5 205z" />
<glyph unicode="&#xa3;" d="M98 174q0 84 56.5 137.5t150.5 53.5q70 0 127 -27t109 -64q2 16 3 30.5t1 31.5q0 111 -39 193.5t-90 160.5h-262v96h198q-47 74 -83 156t-36 191q0 84 30 154.5t83 120.5t125 79t156 29q147 0 245.5 -63.5t157.5 -164.5l-104 -61q-51 90 -124 135t-179 45 q-57 0 -106.5 -20.5t-86.5 -56.5t-57.5 -86t-20.5 -111q0 -100 39 -182.5t90 -164.5h432v-96h-374q43 -76 74.5 -160t31.5 -188q0 -35 -5 -68.5t-15 -64.5q57 -47 110 -84t113 -37q59 0 81.5 32t22.5 91v135h119v-133q0 -131 -60.5 -182t-166.5 -51q-74 0 -139.5 40.5 t-126.5 94.5q-41 -59 -102.5 -97t-147.5 -38q-111 0 -170.5 54t-59.5 140zM203 170q0 -47 34 -71.5t89 -24.5q66 0 110.5 26.5t71.5 73.5q-47 39 -96.5 66.5t-100.5 27.5t-79.5 -28.5t-28.5 -69.5z" />
<glyph unicode="&#xa4;" horiz-adv-x="1583" d="M203 199l190 198q-59 70 -91 157t-32 187q0 98 32 186.5t91 157.5l-190 199l69 72l193 -201q68 55 152.5 87t183.5 32q94 0 179 -31t153 -86l180 189l69 -72l-178 -184q59 -72 94 -160t35 -189q0 -102 -34.5 -191t-96.5 -159l178 -182l-71 -72l-181 185 q-68 -53 -150.5 -83t-176.5 -30q-96 0 -181 30.5t-155 86.5l-191 -199zM389 741q0 -88 32 -165.5t87 -135t131 -91.5t162 -34t161.5 34t132 91.5t88 135t31.5 165.5t-31.5 166t-88 135.5t-132 91t-161.5 33.5t-162 -33.5t-131 -91t-87 -135.5t-32 -166z" />
<glyph unicode="&#xa5;" d="M106 1495h134l366 -577l367 577h131l-438 -690v-14h346v-99h-346v-246h346v-98h-346v-348h-117v348h-350v98h350v246h-350v99h350v12z" />
<glyph unicode="&#xa6;" horiz-adv-x="444" d="M135 389h119v-860h-119v860zM135 635v860h119v-860h-119z" />
<glyph unicode="&#xa7;" horiz-adv-x="1241" d="M123 776q0 80 51 146.5t143 95.5q-57 35 -87.5 81t-30.5 115q0 72 30.5 128.5t84 95.5t128 58.5t160.5 19.5q109 0 187.5 -27t132 -70t82 -98t34.5 -113l-114 -22q-4 51 -24.5 94t-58.5 74.5t-97.5 49t-143.5 17.5q-55 0 -107.5 -11t-93.5 -34.5t-65.5 -62.5t-24.5 -94 q0 -49 26.5 -81t75 -54.5t115 -39t146.5 -32.5q100 -23 180 -46.5t137.5 -56t88 -78t30.5 -108.5q0 -76 -51 -142.5t-139 -97.5q59 -33 90.5 -80t31.5 -118q0 -72 -32.5 -128.5t-90 -96.5t-134.5 -60t-165 -20q-115 0 -198.5 27.5t-141 72.5t-87 102.5t-35.5 118.5l118 27 q2 -51 25 -97.5t66 -80t107.5 -54t150.5 -20.5q53 0 108 11t99 35.5t72 63.5t28 95q0 49 -26.5 81.5t-76 54t-117 37t-147.5 31.5q-100 20 -182 45t-139.5 59t-88 79t-30.5 108zM236 791q0 -49 31.5 -83t85 -58.5t124 -41.5t148.5 -33q53 -10 101 -21t89 -26q92 25 136 76 t44 111q0 45 -31.5 76.5t-84 55t-122 41t-147.5 34.5q-53 10 -101 22t-89 27q-88 -12 -137.5 -64.5t-46.5 -115.5z" />
<glyph unicode="&#xa8;" horiz-adv-x="1036" d="M223 1294q0 41 30 70t69 29q43 0 71.5 -29t28.5 -70t-28.5 -70.5t-71.5 -29.5t-71 29.5t-28 70.5zM588 1294q0 41 28.5 70t69.5 29q43 0 71.5 -29t28.5 -70t-28.5 -70.5t-71.5 -29.5t-70.5 29.5t-27.5 70.5z" />
<glyph unicode="&#xa9;" horiz-adv-x="1757" d="M111 748q0 160 60 299t164.5 243.5t244 165t299.5 60.5t299 -60.5t243.5 -165t165 -244t60.5 -298.5q0 -160 -60.5 -299.5t-165 -244t-243.5 -164.5t-299 -60t-299.5 60t-244 164.5t-164.5 244t-60 299.5zM225 748q0 -137 50.5 -258t138.5 -211.5t207 -142.5t258 -52 q137 0 256.5 52t208 142.5t138.5 211t50 258.5q0 137 -50 257.5t-138.5 211t-208 142.5t-256.5 52q-139 0 -258 -52t-207 -142.5t-138.5 -211t-50.5 -257.5zM479 748q0 84 32 157.5t87 129t129 87t160 31.5q113 0 206 -55.5t144 -141.5l-100 -63q-35 66 -100.5 107.5 t-151.5 41.5q-59 0 -112.5 -23.5t-93.5 -63.5t-63.5 -93t-23.5 -114t23.5 -115.5t63.5 -94.5t93 -63.5t113 -23.5q90 0 157.5 45t100.5 116l102 -57q-49 -94 -145 -153.5t-213 -59.5q-86 0 -161 32t-129 87t-86 129t-32 158z" />
<glyph unicode="&#xaa;" horiz-adv-x="856" d="M123 1198q0 72 25.5 129t68.5 97t96.5 61.5t108.5 21.5q72 0 132 -29.5t97 -80.5v98h90v-592h-90v98q-37 -51 -97 -80.5t-134 -29.5q-55 0 -108.5 21.5t-95.5 61.5t-67.5 97t-25.5 127zM215 1200q0 -47 17.5 -88t47 -71.5t69.5 -48t87 -17.5t87 17.5t69 48t45 71.5t16 88 q0 45 -16 86t-45 72t-69 48t-87 17t-87 -17t-69.5 -47t-47 -71t-17.5 -88z" />
<glyph unicode="&#xab;" horiz-adv-x="923" d="M137 475v74l318 239v-92l-244 -186l244 -184v-90zM469 475v74l315 239v-92l-241 -186l241 -184v-90z" />
<glyph unicode="&#xac;" horiz-adv-x="1234" d="M70 934v113h1083v-635h-119v522h-964z" />
<glyph unicode="&#xad;" horiz-adv-x="972" d="M109 463v104h757v-104h-757z" />
<glyph unicode="&#xae;" horiz-adv-x="1757" d="M111 512q0 160 60 299t164.5 243.5t244 165t299.5 60.5t299 -60.5t243.5 -165t165 -243.5t60.5 -299t-60.5 -299t-165 -243.5t-243.5 -165t-299 -60.5t-299.5 60.5t-244 165t-164.5 243.5t-60 299zM225 512q0 -137 50.5 -258t138.5 -211t207 -142.5t258 -52.5 q137 0 256.5 52.5t208 142.5t138.5 211t50 258t-50 258t-138.5 211t-208 142.5t-256.5 52.5q-139 0 -258 -52.5t-207 -142.5t-138.5 -211t-50.5 -258zM612 141v766h303q63 0 115.5 -19.5t89.5 -52t57.5 -77.5t20.5 -94q0 -88 -47 -158t-137 -92l184 -273h-131l-223 346h55 q80 0 132 47.5t52 124.5q0 76 -53 114t-127 38h-180v-670h-111z" />
<glyph unicode="&#xaf;" horiz-adv-x="1028" d="M246 1157v103h540v-103h-540z" />
<glyph unicode="&#xb0;" horiz-adv-x="886" d="M215 1288q0 47 18.5 88t49 72t72.5 49.5t89 18.5t89 -18.5t73 -49.5t48.5 -72t17.5 -88t-17.5 -89t-48.5 -72.5t-73 -49t-89 -18.5t-89 18.5t-72.5 49t-49 72.5t-18.5 89zM315 1286q0 -53 38 -91t91 -38t91 38t38 91t-37.5 91t-91.5 38q-53 0 -91 -38t-38 -91z" />
<glyph unicode="&#xb1;" horiz-adv-x="972" d="M109 268v103h757v-103h-757zM109 895v102h327v328h103v-328h327v-102h-327v-328h-103v328h-327z" />
<glyph unicode="&#xb2;" horiz-adv-x="704" d="M70 1327q39 82 110.5 131t171.5 49q129 0 203 -68.5t74 -168.5q0 -51 -20.5 -93t-53.5 -78t-74 -67t-84 -59q-39 -27 -76.5 -53.5t-66.5 -56t-47.5 -61.5t-18.5 -69h443v-102h-551v102q0 53 21.5 97t56.5 82t78 71t86 64q39 27 74.5 52t63 52t44 56.5t16.5 62.5 q0 61 -45 102t-123 41q-68 0 -115 -37t-75 -96z" />
<glyph unicode="&#xb3;" horiz-adv-x="673" d="M51 735l90 70q66 -88 183 -88q78 0 128 43t50 112q0 74 -53.5 115t-135.5 41h-86v98h86q84 0 129 41t45 107q0 63 -46 101t-122 38q-59 0 -102 -25.5t-67 -64.5l-91 51q37 57 104.5 95t155.5 38q125 0 198 -63.5t73 -169.5q0 -66 -31 -115t-86 -80q61 -29 98 -81t37 -126 q0 -111 -74.5 -182.5t-209.5 -71.5q-84 0 -154 29t-119 88z" />
<glyph unicode="&#xb4;" horiz-adv-x="1028" d="M301 1157l244 318h153l-286 -318h-111z" />
<glyph unicode="&#xb5;" horiz-adv-x="1236" d="M145 -471v1495h119v-565q0 -84 26.5 -152.5t73 -118t111 -76t139.5 -26.5q78 0 144.5 27.5t115 77t76 117t27.5 145.5v571h117v-1024h-115v190q-53 -94 -150.5 -152t-226.5 -58q-113 0 -200 49t-140 121v-621h-117z" />
<glyph unicode="&#xb6;" horiz-adv-x="1177" d="M78 1057q0 92 33.5 172t93 139t140.5 93t175 34h522v-1495h-106v1389h-123v-1389h-104v618h-187q-96 0 -177 34t-140.5 93.5t-93 139.5t-33.5 172z" />
<glyph unicode="&#xb7;" horiz-adv-x="391" d="M90 510q0 43 31 72.5t72 29.5q45 0 74.5 -29.5t29.5 -72.5t-29.5 -73.5t-74.5 -30.5t-74 30.5t-29 73.5z" />
<glyph unicode="&#xb8;" horiz-adv-x="1028" d="M223 -356l94 57q41 -35 82 -56.5t109 -21.5q72 0 118 29t46 74q0 41 -44 65.5t-126 24.5h-68v184h101v-109q111 -2 179 -46t68 -115q0 -43 -21.5 -79t-58 -61.5t-87 -40t-107.5 -14.5q-96 0 -165 31t-120 78z" />
<glyph unicode="&#xb9;" horiz-adv-x="585" d="M76 631v100h172v584q-18 -31 -60.5 -52.5t-83.5 -21.5h-12v113h6q43 0 72 13t46 33.5t25.5 46.5t8.5 48h104v-764h166v-100h-444z" />
<glyph unicode="&#xba;" horiz-adv-x="862" d="M123 1198q0 63 24.5 120.5t65.5 98.5t97.5 65.5t119.5 24.5t120.5 -24.5t98.5 -65.5t65.5 -98t24.5 -121q0 -63 -24.5 -119.5t-65.5 -97.5t-98.5 -65.5t-120.5 -24.5t-119.5 24.5t-97.5 65.5t-65.5 97.5t-24.5 119.5zM215 1198q0 -45 16.5 -85t46 -69.5t68.5 -47 t84 -17.5t85 17.5t69.5 47t46 69.5t16.5 85t-16.5 86t-46 70.5t-69.5 47t-85 17.5t-84 -17.5t-68.5 -47t-46 -70.5t-16.5 -86z" />
<glyph unicode="&#xbb;" horiz-adv-x="923" d="M137 238v90l244 184l-244 184v92l318 -239v-72zM469 238v90l244 184l-244 184v92l315 -239v-72z" />
<glyph unicode="&#xbc;" horiz-adv-x="1599" d="M76 631v100h172v584q-18 -31 -60.5 -52.5t-83.5 -21.5h-12v113h6q43 0 72 13t46 33.5t25.5 46.5t8.5 48h104v-764h166v-100h-444zM215 0l1079 1495h140l-1080 -1495h-139zM885 199v98l395 567h111v-567h125v-98h-125v-199h-107v199h-399zM1001 297h283v401z" />
<glyph unicode="&#xbd;" horiz-adv-x="1701" d="M76 631v100h172v584q-18 -31 -60.5 -52.5t-83.5 -21.5h-12v113h6q43 0 72 13t46 33.5t25.5 46.5t8.5 48h104v-764h166v-100h-444zM215 0l1079 1495h140l-1080 -1495h-139zM1061 696q39 82 110.5 131.5t171.5 49.5q129 0 203 -69t74 -169q0 -51 -20.5 -93t-53.5 -78 t-73.5 -66.5t-83.5 -59.5q-39 -27 -77 -53.5t-66.5 -56t-47 -61.5t-18.5 -69h442v-102h-551v102q0 53 21.5 97.5t56.5 82t78 70.5t86 64q39 27 74.5 52.5t63.5 52t44 56t16 62.5q0 61 -45 102t-123 41q-68 0 -114.5 -36.5t-75.5 -96.5z" />
<glyph unicode="&#xbe;" horiz-adv-x="1660" d="M51 735l90 70q66 -88 183 -88q78 0 128 43t50 112q0 74 -53.5 115t-135.5 41h-86v98h86q84 0 129 41t45 107q0 63 -46 101t-122 38q-59 0 -102 -25.5t-67 -64.5l-91 51q37 57 104.5 95t155.5 38q125 0 198 -63.5t73 -169.5q0 -66 -31 -115t-86 -80q61 -29 98 -81t37 -126 q0 -111 -74.5 -182.5t-209.5 -71.5q-84 0 -154 29t-119 88zM279 0l1079 1495h139l-1079 -1495h-139zM948 199v98l395 567h111v-567h125v-98h-125v-199h-106v199h-400zM1065 297h283v401z" />
<glyph unicode="&#xbf;" horiz-adv-x="1103" d="M115 -129q0 96 29.5 159.5t75.5 111.5t98.5 90t98.5 97.5t75.5 133.5t29.5 194v17h109v-17q0 -129 -30 -216t-74 -148.5t-95 -105.5t-95 -88t-74 -97t-30 -133q0 -57 25 -104.5t67 -81t99 -52t123 -18.5q129 0 206.5 54t127.5 145l104 -50q-53 -106 -164.5 -180 t-273.5 -74q-92 0 -171 26t-137.5 74t-91 114.5t-32.5 148.5zM471 942q0 43 30.5 72.5t71.5 29.5q45 0 75 -29.5t30 -72.5t-30 -73.5t-75 -30.5t-73.5 30.5t-28.5 73.5z" />
<glyph unicode="&#xc0;" horiz-adv-x="1429" d="M76 0l575 1495h127l576 -1495h-125l-162 418h-707l-159 -418h-125zM365 1946h151l246 -318h-111zM403 530h621l-309 807z" />
<glyph unicode="&#xc1;" horiz-adv-x="1429" d="M76 0l575 1495h127l576 -1495h-125l-162 418h-707l-159 -418h-125zM403 530h621l-309 807zM645 1628l244 318h153l-286 -318h-111z" />
<glyph unicode="&#xc2;" horiz-adv-x="1429" d="M76 0l575 1495h127l576 -1495h-125l-162 418h-707l-159 -418h-125zM403 530h621l-309 807zM410 1628l243 318h101l243 -318h-125l-170 225l-170 -225h-122z" />
<glyph unicode="&#xc3;" horiz-adv-x="1429" d="M76 0l575 1495h127l576 -1495h-125l-162 418h-707l-159 -418h-125zM348 1628q0 102 53.5 161.5t137.5 59.5q51 0 93 -18.5t83 -42.5q39 -23 74.5 -43.5t72.5 -20.5q47 0 75 29t28 90h94q0 -104 -50.5 -163.5t-144.5 -59.5q-59 0 -105 23.5t-87 48.5q-35 20 -66 37.5 t-67 17.5q-41 0 -68 -29.5t-27 -89.5h-96zM403 530h621l-309 807z" />
<glyph unicode="&#xc4;" horiz-adv-x="1429" d="M76 0l575 1495h127l576 -1495h-125l-162 418h-707l-159 -418h-125zM403 530h621l-309 807zM428 1765q0 41 29.5 70t68.5 29q43 0 72 -29t29 -70t-29 -70.5t-72 -29.5t-70.5 29.5t-27.5 70.5zM793 1765q0 41 28.5 70t69.5 29q43 0 71.5 -29t28.5 -70t-28.5 -70.5 t-71.5 -29.5t-70.5 29.5t-27.5 70.5z" />
<glyph unicode="&#xc5;" horiz-adv-x="1429" d="M76 0l549 1427q-53 23 -87 73t-34 114q0 43 15.5 80t43 64.5t64.5 44t78 16.5q43 0 80.5 -16.5t65.5 -44t44 -64.5t16 -80q0 -59 -30.5 -106.5t-79.5 -73.5l553 -1434h-125l-162 418h-707l-159 -418h-125zM403 530h621l-309 807zM594 1614q0 -47 33 -79t78 -32 q47 0 80.5 32t33.5 79t-33.5 79.5t-80.5 32.5q-45 0 -78 -32.5t-33 -79.5z" />
<glyph unicode="&#xc6;" horiz-adv-x="2123" d="M63 0l758 1495h1149v-113h-993l129 -577h864v-111h-840l130 -581h710v-113h-805l-92 408h-670l-204 -408h-136zM459 516h590l-181 809z" />
<glyph unicode="&#xc7;" horiz-adv-x="1630" d="M109 748q0 160 60 299t164.5 243.5t244 165t299.5 60.5q104 0 201.5 -28t182.5 -77t154.5 -118.5t120.5 -153.5l-102 -60q-84 145 -229.5 235.5t-327.5 90.5q-137 0 -255 -52.5t-205 -141.5t-137.5 -208.5t-50.5 -254.5t50.5 -255t137.5 -209t204.5 -140.5t255.5 -51.5 q197 0 346 95.5t229 248.5l104 -53q-96 -176 -264 -285.5t-385 -117.5v-89q111 -2 179.5 -46t68.5 -115q0 -43 -21.5 -79t-58.5 -61.5t-87 -40t-107 -14.5q-96 0 -165 31t-120 78l94 57q41 -35 82 -56.5t109 -21.5q72 0 117.5 29t45.5 74q0 41 -44 65.5t-126 24.5h-67v168 q-147 12 -274 76.5t-221.5 167t-148.5 235.5t-54 285z" />
<glyph unicode="&#xc8;" horiz-adv-x="1202" d="M154 0v1495h915v-113h-797v-577h797v-111h-797v-581h797v-113h-915zM287 1946h151l246 -318h-111z" />
<glyph unicode="&#xc9;" horiz-adv-x="1202" d="M154 0v1495h915v-113h-797v-577h797v-111h-797v-581h797v-113h-915zM518 1628l244 318h153l-286 -318h-111z" />
<glyph unicode="&#xca;" horiz-adv-x="1202" d="M154 0v1495h915v-113h-797v-577h797v-111h-797v-581h797v-113h-915zM309 1628l244 318h100l244 -318h-125l-170 225l-170 -225h-123z" />
<glyph unicode="&#xcb;" horiz-adv-x="1202" d="M154 0v1495h915v-113h-797v-577h797v-111h-797v-581h797v-113h-915zM328 1765q0 41 29.5 70t68.5 29q43 0 71.5 -29t28.5 -70t-28.5 -70.5t-71.5 -29.5t-70.5 29.5t-27.5 70.5zM692 1765q0 41 29 70t70 29q43 0 71.5 -29t28.5 -70t-28.5 -70.5t-71.5 -29.5t-71 29.5 t-28 70.5z" />
<glyph unicode="&#xcc;" horiz-adv-x="464" d="M-109 1946h152l246 -318h-111zM174 0v1495h117v-1495h-117z" />
<glyph unicode="&#xcd;" horiz-adv-x="464" d="M170 1628l244 318h153l-286 -318h-111zM174 0v1495h117v-1495h-117z" />
<glyph unicode="&#xce;" horiz-adv-x="464" d="M-63 1628l243 318h101l243 -318h-125l-170 225l-170 -225h-122zM174 0v1495h117v-1495h-117z" />
<glyph unicode="&#xcf;" horiz-adv-x="464" d="M-70 1726q0 39 28 66t65 27q41 0 67.5 -27t26.5 -66t-27 -66.5t-67 -27.5q-41 0 -67 27.5t-26 66.5zM174 0v1495h117v-1495h-117zM340 1726q0 39 27.5 66t64.5 27q41 0 67.5 -27t26.5 -66t-26.5 -66.5t-67.5 -27.5t-66.5 27.5t-25.5 66.5z" />
<glyph unicode="&#xd0;" horiz-adv-x="1497" d="M45 725v94h154v676h415q170 0 312.5 -57.5t246 -157.5t161 -236.5t57.5 -295.5q0 -160 -59.5 -297.5t-163 -236.5t-245 -156.5t-305.5 -57.5h-419v725h-154zM317 111h291q141 0 262 48t210 134t140.5 202.5t51.5 252.5q0 135 -49 251.5t-138.5 202.5t-211 135t-269.5 49 h-287v-567h474v-94h-474v-614z" />
<glyph unicode="&#xd1;" horiz-adv-x="1519" d="M154 0v1495h131l962 -1311v1311h119v-1495h-127l-967 1317v-1317h-118zM403 1628q0 102 53.5 161.5t137.5 59.5q51 0 93 -18.5t83 -42.5q39 -23 75 -43.5t73 -20.5q47 0 74.5 29t27.5 90h94q0 -104 -50 -163.5t-144 -59.5q-59 0 -105.5 23.5t-87.5 48.5 q-35 20 -65.5 37.5t-67.5 17.5q-41 0 -67.5 -29.5t-26.5 -89.5h-97z" />
<glyph unicode="&#xd2;" horiz-adv-x="1753" d="M111 748q0 160 61 299t165.5 243.5t244 165t297.5 60.5q160 0 299 -60.5t242.5 -165t162.5 -244t59 -298.5q0 -158 -60 -297.5t-164.5 -244t-243.5 -165.5t-297 -61q-170 0 -310.5 59t-242 162.5t-157.5 244t-56 302.5zM231 748q0 -135 49.5 -255t136.5 -209t205 -140.5 t255 -51.5t254.5 51.5t204.5 140.5t137.5 208.5t50.5 255.5q0 135 -49.5 253.5t-136.5 207.5t-204.5 141.5t-254.5 52.5t-255 -52.5t-205 -141.5t-137.5 -207.5t-50.5 -253.5zM530 1946h152l246 -318h-111z" />
<glyph unicode="&#xd3;" horiz-adv-x="1753" d="M111 748q0 160 61 299t165.5 243.5t244 165t297.5 60.5q160 0 299 -60.5t242.5 -165t162.5 -244t59 -298.5q0 -158 -60 -297.5t-164.5 -244t-243.5 -165.5t-297 -61q-170 0 -310.5 59t-242 162.5t-157.5 244t-56 302.5zM231 748q0 -135 49.5 -255t136.5 -209t205 -140.5 t255 -51.5t254.5 51.5t204.5 140.5t137.5 208.5t50.5 255.5q0 135 -49.5 253.5t-136.5 207.5t-204.5 141.5t-254.5 52.5t-255 -52.5t-205 -141.5t-137.5 -207.5t-50.5 -253.5zM803 1628l244 318h153l-287 -318h-110z" />
<glyph unicode="&#xd4;" horiz-adv-x="1753" d="M111 748q0 160 61 299t165.5 243.5t244 165t297.5 60.5q160 0 299 -60.5t242.5 -165t162.5 -244t59 -298.5q0 -158 -60 -297.5t-164.5 -244t-243.5 -165.5t-297 -61q-170 0 -310.5 59t-242 162.5t-157.5 244t-56 302.5zM231 748q0 -135 49.5 -255t136.5 -209t205 -140.5 t255 -51.5t254.5 51.5t204.5 140.5t137.5 208.5t50.5 255.5q0 135 -49.5 253.5t-136.5 207.5t-204.5 141.5t-254.5 52.5t-255 -52.5t-205 -141.5t-137.5 -207.5t-50.5 -253.5zM575 1628l244 318h101l243 -318h-125l-170 225l-170 -225h-123z" />
<glyph unicode="&#xd5;" horiz-adv-x="1753" d="M111 748q0 160 61 299t165.5 243.5t244 165t297.5 60.5q160 0 299 -60.5t242.5 -165t162.5 -244t59 -298.5q0 -158 -60 -297.5t-164.5 -244t-243.5 -165.5t-297 -61q-170 0 -310.5 59t-242 162.5t-157.5 244t-56 302.5zM231 748q0 -135 49.5 -255t136.5 -209t205 -140.5 t255 -51.5t254.5 51.5t204.5 140.5t137.5 208.5t50.5 255.5q0 135 -49.5 253.5t-136.5 207.5t-204.5 141.5t-254.5 52.5t-255 -52.5t-205 -141.5t-137.5 -207.5t-50.5 -253.5zM510 1628q0 102 53 161.5t137 59.5q51 0 93.5 -18.5t83.5 -42.5q39 -23 74.5 -43.5t72.5 -20.5 q47 0 74.5 29t27.5 90h95q0 -104 -50.5 -163.5t-144.5 -59.5q-59 0 -105.5 23.5t-86.5 48.5q-35 20 -66 37.5t-68 17.5q-41 0 -67.5 -29.5t-26.5 -89.5h-96z" />
<glyph unicode="&#xd6;" horiz-adv-x="1753" d="M111 748q0 160 61 299t165.5 243.5t244 165t297.5 60.5q160 0 299 -60.5t242.5 -165t162.5 -244t59 -298.5q0 -158 -60 -297.5t-164.5 -244t-243.5 -165.5t-297 -61q-170 0 -310.5 59t-242 162.5t-157.5 244t-56 302.5zM231 748q0 -135 49.5 -255t136.5 -209t205 -140.5 t255 -51.5t254.5 51.5t204.5 140.5t137.5 208.5t50.5 255.5q0 135 -49.5 253.5t-136.5 207.5t-204.5 141.5t-254.5 52.5t-255 -52.5t-205 -141.5t-137.5 -207.5t-50.5 -253.5zM592 1765q0 41 29.5 70t68.5 29q43 0 72 -29t29 -70t-29 -70.5t-72 -29.5t-70.5 29.5t-27.5 70.5 zM956 1765q0 41 29 70t70 29q43 0 71.5 -29t28.5 -70t-28.5 -70.5t-71.5 -29.5t-71 29.5t-28 70.5z" />
<glyph unicode="&#xd7;" horiz-adv-x="972" d="M156 483l262 262l-262 265l69 69l262 -264l263 262l69 -69l-262 -263l262 -260l-69 -69l-263 260l-262 -262z" />
<glyph unicode="&#xd8;" horiz-adv-x="1753" d="M111 748q0 160 60 299t164.5 243.5t244 165t299.5 60.5q119 0 226 -35t200 -97l149 193l84 -64l-149 -192q119 -106 188.5 -253.5t69.5 -319.5q0 -160 -60.5 -299.5t-165 -244t-244 -164.5t-298.5 -60q-121 0 -230.5 33.5t-202.5 97.5l-149 -193l-84 64l152 194 q-117 106 -185.5 252.5t-68.5 319.5zM231 748q0 -141 54.5 -265.5t148.5 -214.5l801 1026q-78 51 -167 80t-189 29q-137 0 -255 -52.5t-205 -141.5t-137.5 -207.5t-50.5 -253.5zM518 201q78 -51 168.5 -80t192.5 -29q137 0 254.5 51.5t204.5 140.5t136.5 208.5t49.5 255.5 q0 143 -55.5 267t-151.5 214z" />
<glyph unicode="&#xd9;" horiz-adv-x="1312" d="M147 487v1008h119v-1014q0 -80 30 -151.5t82 -123.5t123.5 -83t153.5 -31t154 31t124 84t83 123.5t31 152.5v1012h118v-1008q0 -106 -39 -199t-107.5 -162t-161.5 -107.5t-202 -38.5t-202 38.5t-160.5 107.5t-106.5 162t-39 199zM322 1946h151l246 -318h-111z" />
<glyph unicode="&#xda;" horiz-adv-x="1312" d="M147 487v1008h119v-1014q0 -80 30 -151.5t82 -123.5t123.5 -83t153.5 -31t154 31t124 84t83 123.5t31 152.5v1012h118v-1008q0 -106 -39 -199t-107.5 -162t-161.5 -107.5t-202 -38.5t-202 38.5t-160.5 107.5t-106.5 162t-39 199zM573 1628l244 318h154l-287 -318h-111z " />
<glyph unicode="&#xdb;" horiz-adv-x="1312" d="M147 487v1008h119v-1014q0 -80 30 -151.5t82 -123.5t123.5 -83t153.5 -31t154 31t124 84t83 123.5t31 152.5v1012h118v-1008q0 -106 -39 -199t-107.5 -162t-161.5 -107.5t-202 -38.5t-202 38.5t-160.5 107.5t-106.5 162t-39 199zM356 1628l244 318h100l244 -318h-125 l-170 225l-170 -225h-123z" />
<glyph unicode="&#xdc;" horiz-adv-x="1312" d="M147 487v1008h119v-1014q0 -80 30 -151.5t82 -123.5t123.5 -83t153.5 -31t154 31t124 84t83 123.5t31 152.5v1012h118v-1008q0 -106 -39 -199t-107.5 -162t-161.5 -107.5t-202 -38.5t-202 38.5t-160.5 107.5t-106.5 162t-39 199zM373 1765q0 41 29.5 70t68.5 29 q43 0 71.5 -29t28.5 -70t-28.5 -70.5t-71.5 -29.5t-70.5 29.5t-27.5 70.5zM737 1765q0 41 29 70t70 29q43 0 71.5 -29t28.5 -70t-28.5 -70.5t-71.5 -29.5t-71 29.5t-28 70.5z" />
<glyph unicode="&#xdd;" horiz-adv-x="1253" d="M68 1495h133l426 -672l426 672h133l-498 -780v-715h-119v711zM557 1628l244 318h153l-286 -318h-111z" />
<glyph unicode="&#xde;" horiz-adv-x="1169" d="M150 0v1495h118v-313h322q104 0 190 -31t146.5 -86t93.5 -132t33 -169t-33 -169t-93.5 -132t-145.5 -87t-191 -32h-322v-344h-118zM268 453h314q164 0 257 87t93 224q0 68 -24.5 124t-69.5 97t-109.5 63.5t-146.5 22.5h-314v-618z" />
<glyph unicode="&#xdf;" horiz-adv-x="1126" d="M-102 -358q143 0 195 65.5t52 204.5v1194q0 88 29 161.5t81 127t127 83t165 29.5q86 0 159.5 -29.5t127 -82t83 -123t29.5 -152.5q0 -111 -54 -195.5t-149 -131.5q127 -43 204 -141.5t77 -239.5q0 -92 -30.5 -170t-86 -134.5t-133.5 -89t-174 -32.5q-129 0 -209 45l6 110 q41 -23 90.5 -36t112.5 -13t118.5 24.5t96.5 67.5t65.5 101.5t24.5 126.5q0 66 -24.5 123t-70.5 100t-110.5 67.5t-142.5 24.5h-37v111h37q53 0 102.5 21.5t86 59t59 90t22.5 115.5q0 57 -20.5 108.5t-58 90.5t-90 62.5t-113.5 23.5q-59 0 -111.5 -20.5t-91.5 -58.5 t-61.5 -91t-22.5 -121v-1204q0 -201 -78 -292t-262 -91h-20v111z" />
<glyph unicode="&#xe0;" horiz-adv-x="1304" d="M102 512q0 111 40 207t111 169t167 114.5t209 41.5q57 0 117.5 -15t116 -45t102.5 -74t77 -99v213h117v-1024h-117v213q-31 -55 -77.5 -99t-102 -74t-116 -45t-117.5 -15q-113 0 -209 41.5t-167 114.5t-111 169t-40 207zM219 512q0 -88 33 -166t89 -135t132 -91t162 -34 q88 0 165 34t134 91t89 135t32 166t-32 165t-89 135t-134 92t-165 34q-86 0 -162 -34t-132 -91t-89 -135t-33 -166zM301 1475h152l245 -318h-110z" />
<glyph unicode="&#xe1;" horiz-adv-x="1304" d="M102 512q0 111 40 207t111 169t167 114.5t209 41.5q57 0 117.5 -15t116 -45t102.5 -74t77 -99v213h117v-1024h-117v213q-31 -55 -77.5 -99t-102 -74t-116 -45t-117.5 -15q-113 0 -209 41.5t-167 114.5t-111 169t-40 207zM219 512q0 -88 33 -166t89 -135t132 -91t162 -34 q88 0 165 34t134 91t89 135t32 166t-32 165t-89 135t-134 92t-165 34q-86 0 -162 -34t-132 -91t-89 -135t-33 -166zM557 1157l244 318h153l-286 -318h-111z" />
<glyph unicode="&#xe2;" horiz-adv-x="1304" d="M102 512q0 111 40 207t111 169t167 114.5t209 41.5q57 0 117.5 -15t116 -45t102.5 -74t77 -99v213h117v-1024h-117v213q-31 -55 -77.5 -99t-102 -74t-116 -45t-117.5 -15q-113 0 -209 41.5t-167 114.5t-111 169t-40 207zM219 512q0 -88 33 -166t89 -135t132 -91t162 -34 q88 0 165 34t134 91t89 135t32 166t-32 165t-89 135t-134 92t-165 34q-86 0 -162 -34t-132 -91t-89 -135t-33 -166zM367 1157l243 318h101l243 -318h-125l-170 225l-170 -225h-122z" />
<glyph unicode="&#xe3;" horiz-adv-x="1304" d="M102 512q0 111 40 207t111 169t167 114.5t209 41.5q57 0 117.5 -15t116 -45t102.5 -74t77 -99v213h117v-1024h-117v213q-31 -55 -77.5 -99t-102 -74t-116 -45t-117.5 -15q-113 0 -209 41.5t-167 114.5t-111 169t-40 207zM219 512q0 -88 33 -166t89 -135t132 -91t162 -34 q88 0 165 34t134 91t89 135t32 166t-32 165t-89 135t-134 92t-165 34q-86 0 -162 -34t-132 -91t-89 -135t-33 -166zM313 1157q0 102 53.5 161.5t137.5 59.5q51 0 93 -18.5t83 -42.5q39 -23 75 -43.5t72 -20.5q47 0 75 29t28 90h94q0 -104 -50 -163.5t-145 -59.5 q-59 0 -105 23.5t-87 48.5q-35 20 -65.5 37.5t-67.5 17.5q-41 0 -67.5 -29.5t-26.5 -89.5h-97z" />
<glyph unicode="&#xe4;" horiz-adv-x="1304" d="M102 512q0 111 40 207t111 169t167 114.5t209 41.5q57 0 117.5 -15t116 -45t102.5 -74t77 -99v213h117v-1024h-117v213q-31 -55 -77.5 -99t-102 -74t-116 -45t-117.5 -15q-113 0 -209 41.5t-167 114.5t-111 169t-40 207zM219 512q0 -88 33 -166t89 -135t132 -91t162 -34 q88 0 165 34t134 91t89 135t32 166t-32 165t-89 135t-134 92t-165 34q-86 0 -162 -34t-132 -91t-89 -135t-33 -166zM375 1294q0 41 29.5 70t68.5 29q43 0 71.5 -29t28.5 -70t-28.5 -70.5t-71.5 -29.5t-70.5 29.5t-27.5 70.5zM739 1294q0 41 29 70t70 29q43 0 71.5 -29 t28.5 -70t-28.5 -70.5t-71.5 -29.5t-71 29.5t-28 70.5z" />
<glyph unicode="&#xe5;" horiz-adv-x="1304" d="M102 512q0 111 40 207t111 169t167 114.5t209 41.5q57 0 117.5 -15t116 -45t102.5 -74t77 -99v213h117v-1024h-117v213q-31 -55 -77.5 -99t-102 -74t-116 -45t-117.5 -15q-113 0 -209 41.5t-167 114.5t-111 169t-40 207zM219 512q0 -88 33 -166t89 -135t132 -91t162 -34 q88 0 165 34t134 91t89 135t32 166t-32 165t-89 135t-134 92t-165 34q-86 0 -162 -34t-132 -91t-89 -135t-33 -166zM438 1364q0 43 15.5 80t43 64.5t64.5 44t78 16.5q43 0 81 -16.5t65.5 -44t44 -64.5t16.5 -80t-16.5 -80t-44 -64.5t-65.5 -43t-81 -15.5q-84 0 -142.5 58.5 t-58.5 144.5zM528 1364q0 -47 33 -79t78 -32q47 0 81 32t34 79t-34 80t-81 33q-45 0 -78 -33t-33 -80z" />
<glyph unicode="&#xe6;" horiz-adv-x="1994" d="M100 256q0 74 30 126t81 89t120.5 59.5t147.5 38.5q70 14 136.5 28.5t118.5 34t84 49.5t32 77q0 84 -74 138t-221 54q-154 0 -240 -74.5t-86 -193.5v-6h-108v4q0 82 30.5 149.5t87 115.5t136.5 73.5t178 25.5q158 0 256 -54t133 -150q72 94 180.5 149t241.5 55 q111 0 207 -37.5t166.5 -107.5t111.5 -165t41 -210v-45h-944q4 -86 38 -158.5t91.5 -125t133 -82t163.5 -29.5q147 0 247.5 76t143.5 196l105 -47q-59 -152 -186.5 -240.5t-309.5 -88.5q-160 0 -280.5 67.5t-186.5 183.5q-25 -47 -66.5 -92t-98 -79.5t-127 -57t-154.5 -22.5 q-96 0 -164 21.5t-111 59t-63.5 88t-20.5 107.5zM219 258q0 -37 13.5 -69.5t42 -57.5t75.5 -39t113 -14q80 0 144.5 25.5t113.5 63.5t83 85t52 90q-23 80 -22 164q0 43 6 86q-33 -41 -111 -63.5t-201 -47.5q-68 -12 -124 -28.5t-98 -41t-64.5 -61.5t-22.5 -92zM952 586h817 q-10 80 -42.5 144.5t-85 111.5t-123 72.5t-154.5 25.5q-80 0 -149.5 -26.5t-124 -73.5t-90 -112.5t-48.5 -141.5z" />
<glyph unicode="&#xe7;" horiz-adv-x="1214" d="M102 512q0 113 41 211t114 169t170 111.5t210 40.5q84 0 158.5 -22.5t137 -63t111 -98t76.5 -127.5l-106 -45q-51 117 -148.5 183.5t-230.5 66.5q-88 0 -164 -34t-132 -91t-88 -135t-32 -166t32 -166t89 -135t134 -91t167 -34q137 0 233.5 73.5t143.5 186.5l108 -45 q-57 -135 -171.5 -222t-278.5 -97v-91q111 -2 179.5 -46t68.5 -115q0 -43 -21.5 -79t-58.5 -61.5t-87.5 -40t-107.5 -14.5q-96 0 -164.5 31t-119.5 78l94 57q41 -35 82 -56.5t108 -21.5q72 0 118 29t46 74q0 41 -44 65.5t-126 24.5h-68v168q-102 12 -189 57t-150.5 115.5 t-98.5 162t-35 193.5z" />
<glyph unicode="&#xe8;" horiz-adv-x="1259" d="M102 506q0 113 40 212t111 171t168 113.5t212 41.5q113 0 208 -37.5t165.5 -106.5t110.5 -165t40 -211v-51h-944q6 -84 40 -155.5t89 -124t131 -81t166 -28.5q143 0 239.5 68.5t147.5 187.5l102 -49q-70 -147 -188.5 -229t-298.5 -82q-125 0 -224.5 39.5t-169 110.5 t-107.5 167t-38 209zM217 580h819q-8 80 -40.5 146.5t-85 114.5t-122 73.5t-155.5 25.5q-80 0 -150.5 -27.5t-126 -76t-91.5 -114t-48 -142.5zM301 1475h152l245 -318h-110z" />
<glyph unicode="&#xe9;" horiz-adv-x="1259" d="M102 506q0 113 40 212t111 171t168 113.5t212 41.5q113 0 208 -37.5t165.5 -106.5t110.5 -165t40 -211v-51h-944q6 -84 40 -155.5t89 -124t131 -81t166 -28.5q143 0 239.5 68.5t147.5 187.5l102 -49q-70 -147 -188.5 -229t-298.5 -82q-125 0 -224.5 39.5t-169 110.5 t-107.5 167t-38 209zM217 580h819q-8 80 -40.5 146.5t-85 114.5t-122 73.5t-155.5 25.5q-80 0 -150.5 -27.5t-126 -76t-91.5 -114t-48 -142.5zM557 1157l244 318h153l-286 -318h-111z" />
<glyph unicode="&#xea;" horiz-adv-x="1259" d="M102 506q0 113 40 212t111 171t168 113.5t212 41.5q113 0 208 -37.5t165.5 -106.5t110.5 -165t40 -211v-51h-944q6 -84 40 -155.5t89 -124t131 -81t166 -28.5q143 0 239.5 68.5t147.5 187.5l102 -49q-70 -147 -188.5 -229t-298.5 -82q-125 0 -224.5 39.5t-169 110.5 t-107.5 167t-38 209zM217 580h819q-8 80 -40.5 146.5t-85 114.5t-122 73.5t-155.5 25.5q-80 0 -150.5 -27.5t-126 -76t-91.5 -114t-48 -142.5zM340 1157l244 318h100l244 -318h-125l-170 225l-170 -225h-123z" />
<glyph unicode="&#xeb;" horiz-adv-x="1259" d="M102 506q0 113 40 212t111 171t168 113.5t212 41.5q113 0 208 -37.5t165.5 -106.5t110.5 -165t40 -211v-51h-944q6 -84 40 -155.5t89 -124t131 -81t166 -28.5q143 0 239.5 68.5t147.5 187.5l102 -49q-70 -147 -188.5 -229t-298.5 -82q-125 0 -224.5 39.5t-169 110.5 t-107.5 167t-38 209zM217 580h819q-8 80 -40.5 146.5t-85 114.5t-122 73.5t-155.5 25.5q-80 0 -150.5 -27.5t-126 -76t-91.5 -114t-48 -142.5zM356 1274q0 41 30 69.5t69 28.5q43 0 71.5 -28.5t28.5 -69.5t-28.5 -70.5t-71.5 -29.5t-71 29.5t-28 70.5zM721 1274 q0 41 28.5 69.5t69.5 28.5q43 0 72 -28.5t29 -69.5t-29 -70.5t-72 -29.5t-70.5 29.5t-27.5 70.5z" />
<glyph unicode="&#xec;" horiz-adv-x="407" d="M-129 1475h152l245 -318h-110zM145 0v1024h117v-1024h-117z" />
<glyph unicode="&#xed;" horiz-adv-x="407" d="M145 0v1024h117v-1024h-117zM147 1157l244 318h154l-287 -318h-111z" />
<glyph unicode="&#xee;" horiz-adv-x="407" d="M-92 1157l244 318h100l244 -318h-125l-170 225l-170 -225h-123zM145 0v1024h117v-1024h-117z" />
<glyph unicode="&#xef;" horiz-adv-x="407" d="M-92 1255q0 39 27.5 66t64.5 27q41 0 67.5 -27t26.5 -66t-26.5 -66.5t-67.5 -27.5t-66.5 27.5t-25.5 66.5zM145 0v1024h117v-1024h-117zM311 1255q0 39 28 66t64 27q41 0 68 -27t27 -66t-27 -66.5t-68 -27.5t-66.5 27.5t-25.5 66.5z" />
<glyph unicode="&#xf0;" horiz-adv-x="1251" d="M106 498q0 109 40 202t110 162.5t161 108.5t195 39q117 0 199 -40t135 -106q-94 182 -313 383l-182 -133l-60 64l174 127q-53 47 -114.5 94t-128.5 96h180q41 -33 78.5 -63.5t72.5 -63.5l185 135l57 -63l-176 -129q426 -406 426 -813q0 -106 -40 -199.5t-110.5 -163 t-165 -109.5t-204.5 -40q-109 0 -203 38.5t-164 107.5t-111 163t-41 203zM225 498q0 -84 32 -158t87 -128t128 -86t155 -32t155.5 32t127 86t85 128t31.5 158q0 82 -30.5 154.5t-85 128t-127 87t-156.5 31.5q-82 0 -155 -31.5t-128 -86t-87 -128t-32 -155.5z" />
<glyph unicode="&#xf1;" horiz-adv-x="1230" d="M145 0v1024h113v-193q53 94 151.5 153.5t229.5 59.5q102 0 186 -32.5t143.5 -93t91.5 -147.5t32 -198v-573h-117v573q0 166 -91 265.5t-259 99.5q-78 0 -144.5 -27.5t-116 -77t-77 -117t-27.5 -145.5v-571h-115zM250 1157q0 102 53 161.5t137 59.5q51 0 93 -18.5 t83 -42.5q39 -23 75 -43.5t73 -20.5q47 0 74.5 29t27.5 90h95q0 -104 -50.5 -163.5t-144.5 -59.5q-59 0 -105.5 23.5t-87.5 48.5q-35 20 -65.5 37.5t-67.5 17.5q-41 0 -67.5 -29.5t-26.5 -89.5h-96z" />
<glyph unicode="&#xf2;" horiz-adv-x="1267" d="M102 512q0 111 41 208t114 169t169 113.5t207 41.5t208 -41.5t168.5 -113.5t113.5 -169t42 -208t-42 -207t-113.5 -169t-169 -114.5t-207.5 -41.5q-117 0 -214 41.5t-168 113.5t-110 169t-39 208zM219 512q0 -88 32 -166t88 -135t132 -91t162 -34t161.5 34t132 91 t89.5 135t33 166t-33 166t-89.5 135t-132 91t-161.5 34t-162 -34t-132 -91t-88 -135t-32 -166zM297 1475h152l245 -318h-110z" />
<glyph unicode="&#xf3;" horiz-adv-x="1267" d="M102 512q0 111 41 208t114 169t169 113.5t207 41.5t208 -41.5t168.5 -113.5t113.5 -169t42 -208t-42 -207t-113.5 -169t-169 -114.5t-207.5 -41.5q-117 0 -214 41.5t-168 113.5t-110 169t-39 208zM219 512q0 -88 32 -166t88 -135t132 -91t162 -34t161.5 34t132 91 t89.5 135t33 166t-33 166t-89.5 135t-132 91t-161.5 34t-162 -34t-132 -91t-88 -135t-32 -166zM559 1157l244 318h153l-286 -318h-111z" />
<glyph unicode="&#xf4;" horiz-adv-x="1267" d="M102 512q0 111 41 208t114 169t169 113.5t207 41.5t208 -41.5t168.5 -113.5t113.5 -169t42 -208t-42 -207t-113.5 -169t-169 -114.5t-207.5 -41.5q-117 0 -214 41.5t-168 113.5t-110 169t-39 208zM219 512q0 -88 32 -166t88 -135t132 -91t162 -34t161.5 34t132 91 t89.5 135t33 166t-33 166t-89.5 135t-132 91t-161.5 34t-162 -34t-132 -91t-88 -135t-32 -166zM336 1157l244 318h100l244 -318h-125l-170 225l-170 -225h-123z" />
<glyph unicode="&#xf5;" horiz-adv-x="1267" d="M102 512q0 111 41 208t114 169t169 113.5t207 41.5t208 -41.5t168.5 -113.5t113.5 -169t42 -208t-42 -207t-113.5 -169t-169 -114.5t-207.5 -41.5q-117 0 -214 41.5t-168 113.5t-110 169t-39 208zM219 512q0 -88 32 -166t88 -135t132 -91t162 -34t161.5 34t132 91 t89.5 135t33 166t-33 166t-89.5 135t-132 91t-161.5 34t-162 -34t-132 -91t-88 -135t-32 -166zM279 1157q0 102 53 161.5t137 59.5q51 0 93 -18.5t83 -42.5q39 -23 75 -43.5t73 -20.5q47 0 74.5 29t27.5 90h94q0 -104 -50 -163.5t-144 -59.5q-59 0 -105.5 23.5t-87.5 48.5 q-35 20 -65.5 37.5t-67.5 17.5q-41 0 -67.5 -29.5t-26.5 -89.5h-96z" />
<glyph unicode="&#xf6;" horiz-adv-x="1267" d="M102 512q0 111 41 208t114 169t169 113.5t207 41.5t208 -41.5t168.5 -113.5t113.5 -169t42 -208t-42 -207t-113.5 -169t-169 -114.5t-207.5 -41.5q-117 0 -214 41.5t-168 113.5t-110 169t-39 208zM219 512q0 -88 32 -166t88 -135t132 -91t162 -34t161.5 34t132 91 t89.5 135t33 166t-33 166t-89.5 135t-132 91t-161.5 34t-162 -34t-132 -91t-88 -135t-32 -166zM354 1274q0 41 30 69.5t69 28.5q43 0 71.5 -28.5t28.5 -69.5t-28.5 -70.5t-71.5 -29.5t-71 29.5t-28 70.5zM719 1274q0 41 28.5 69.5t69.5 28.5q43 0 72 -28.5t29 -69.5 t-29 -70.5t-72 -29.5t-70.5 29.5t-27.5 70.5z" />
<glyph unicode="&#xf7;" horiz-adv-x="972" d="M109 696v103h757v-103h-757zM393 410q0 39 28 65.5t64 26.5q41 0 68 -26.5t27 -65.5t-27 -67t-68 -28t-66.5 28t-25.5 67zM393 1085q0 39 28 66t64 27q41 0 68 -27t27 -66t-27 -66.5t-68 -27.5t-66.5 27.5t-25.5 66.5z" />
<glyph unicode="&#xf8;" horiz-adv-x="1267" d="M102 512q0 113 41 210t114 169t169 112.5t207 40.5q84 0 157.5 -23.5t139.5 -66.5l102 127l78 -57l-104 -129q74 -72 116.5 -170t42.5 -213q0 -113 -42 -210t-113.5 -169t-169 -112.5t-207.5 -40.5q-84 0 -159 23.5t-138 66.5l-111 -138l-80 62l113 139q-72 72 -114 168 t-42 211zM219 512q0 -86 28.5 -159.5t82.5 -131.5l528 647q-47 33 -104.5 51.5t-120.5 18.5q-86 0 -162 -34t-132 -91t-88 -135t-32 -166zM406 156q98 -70 227 -70q86 0 161.5 34t132 91t88.5 135t32 166q0 86 -31 161t-84 132z" />
<glyph unicode="&#xf9;" horiz-adv-x="1214" d="M139 451v573h117v-573q0 -166 87 -265.5t255 -99.5q76 0 141.5 27.5t112.5 77t73.5 117t26.5 145.5v571h117v-1024h-115v195q-49 -96 -143 -155.5t-223 -59.5q-217 0 -333 124.5t-116 346.5zM270 1475h152l246 -318h-111z" />
<glyph unicode="&#xfa;" horiz-adv-x="1214" d="M139 451v573h117v-573q0 -166 87 -265.5t255 -99.5q76 0 141.5 27.5t112.5 77t73.5 117t26.5 145.5v571h117v-1024h-115v195q-49 -96 -143 -155.5t-223 -59.5q-217 0 -333 124.5t-116 346.5zM514 1157l244 318h153l-286 -318h-111z" />
<glyph unicode="&#xfb;" horiz-adv-x="1214" d="M139 451v573h117v-573q0 -166 87 -265.5t255 -99.5q76 0 141.5 27.5t112.5 77t73.5 117t26.5 145.5v571h117v-1024h-115v195q-49 -96 -143 -155.5t-223 -59.5q-217 0 -333 124.5t-116 346.5zM295 1157l244 318h100l244 -318h-125l-170 225l-170 -225h-123z" />
<glyph unicode="&#xfc;" horiz-adv-x="1214" d="M139 451v573h117v-573q0 -166 87 -265.5t255 -99.5q76 0 141.5 27.5t112.5 77t73.5 117t26.5 145.5v571h117v-1024h-115v195q-49 -96 -143 -155.5t-223 -59.5q-217 0 -333 124.5t-116 346.5zM315 1294q0 41 30 70t69 29q43 0 71.5 -29t28.5 -70t-28.5 -70.5t-71.5 -29.5 t-71 29.5t-28 70.5zM680 1294q0 41 28.5 70t69.5 29q43 0 72 -29t29 -70t-29 -70.5t-72 -29.5t-70.5 29.5t-27.5 70.5z" />
<glyph unicode="&#xfd;" horiz-adv-x="1144" d="M72 1024h129l387 -834l360 834h127l-661 -1497h-125l235 530zM502 1157l243 318h154l-287 -318h-110z" />
<glyph unicode="&#xfe;" horiz-adv-x="1304" d="M147 -471v1966h113v-680q66 104 176.5 166.5t241.5 62.5q113 0 209 -40.5t166.5 -113.5t110.5 -169t40 -207t-40 -208t-110.5 -170t-167.5 -114.5t-210 -41.5q-135 0 -243.5 61t-172.5 162v-674h-113zM254 512q0 -86 32.5 -164t89 -136t133.5 -92t163 -34q90 0 165.5 35 t131 93t86 136t30.5 164t-30.5 164t-85 135t-130 91t-165.5 34q-88 0 -165 -34t-133.5 -91t-89 -135t-32.5 -166z" />
<glyph unicode="&#xff;" horiz-adv-x="1144" d="M72 1024h129l387 -834l360 834h127l-661 -1497h-125l235 530zM295 1274q0 41 29.5 69.5t68.5 28.5q43 0 72 -28.5t29 -69.5t-29 -70.5t-72 -29.5t-70.5 29.5t-27.5 70.5zM659 1274q0 41 29 69.5t70 28.5q43 0 71.5 -28.5t28.5 -69.5t-28.5 -70.5t-71.5 -29.5t-71 29.5 t-28 70.5z" />
<glyph unicode="&#x152;" horiz-adv-x="2572" d="M111 748q0 160 60 299t163.5 243.5t243 165t299.5 60.5q217 0 385 -103.5t264 -273.5v356h913v-113h-794v-577h794v-111h-794v-581h794v-113h-913v354q-96 -170 -264 -272t-385 -102q-160 0 -299.5 60t-243 164.5t-163.5 244t-60 299.5zM229 748q0 -135 51.5 -253 t138.5 -207t205 -140.5t253 -51.5t253.5 51.5t205.5 140.5t138.5 206.5t51.5 253.5q0 135 -51.5 253.5t-138.5 207.5t-205.5 140.5t-253.5 51.5t-253 -51.5t-205 -140.5t-138.5 -207.5t-51.5 -253.5z" />
<glyph unicode="&#x153;" horiz-adv-x="2209" d="M102 512q0 113 41 210t114 169t169 112.5t207 40.5q160 0 284.5 -81.5t188.5 -214.5q63 135 186 215.5t287 80.5q113 0 208 -37.5t165.5 -106.5t110.5 -165t40 -211v-51h-944q6 -84 38 -155.5t87 -124t131 -81t168 -28.5q139 0 233.5 59.5t147.5 163.5l96 -55 q-78 -127 -192.5 -199.5t-282.5 -72.5q-180 0 -302 78.5t-181 207.5q-66 -129 -188.5 -207.5t-280.5 -78.5q-111 0 -207 40.5t-169 112.5t-114 169t-41 210zM219 512q0 -88 32 -166t88 -135t132 -91t162 -34t161.5 34t132 91t88.5 135t32 166t-32 166t-88.5 135t-132 91 t-161.5 34t-162 -34t-132 -91t-88 -135t-32 -166zM1163 580h822q-8 80 -41 146.5t-85.5 114.5t-123 73.5t-156.5 25.5q-80 0 -150.5 -27.5t-126 -76t-91 -114t-48.5 -142.5z" />
<glyph unicode="&#x178;" horiz-adv-x="1253" d="M68 1495h133l426 -672l426 672h133l-498 -780v-715h-119v711zM344 1743q0 41 29.5 69.5t68.5 28.5q43 0 72 -28.5t29 -69.5t-29 -71t-72 -30t-70.5 30t-27.5 71zM709 1743q0 41 28.5 69.5t69.5 28.5q43 0 71.5 -28.5t28.5 -69.5t-28.5 -71t-71.5 -30t-70.5 30t-27.5 71z " />
<glyph unicode="&#x2c6;" horiz-adv-x="1028" d="M221 1157l244 318h100l244 -318h-125l-170 225l-170 -225h-123z" />
<glyph unicode="&#x2dc;" horiz-adv-x="1028" d="M156 1157q0 102 53 161.5t137 59.5q51 0 93 -18.5t83 -42.5q39 -23 75 -43.5t73 -20.5q47 0 74.5 29t27.5 90h94q0 -104 -50 -163.5t-144 -59.5q-59 0 -105.5 23.5t-87.5 48.5q-35 20 -65.5 37.5t-67.5 17.5q-41 0 -67.5 -29.5t-26.5 -89.5h-96z" />
<glyph unicode="&#x2000;" horiz-adv-x="973" />
<glyph unicode="&#x2001;" horiz-adv-x="1946" />
<glyph unicode="&#x2002;" horiz-adv-x="973" />
<glyph unicode="&#x2003;" horiz-adv-x="1946" />
<glyph unicode="&#x2004;" horiz-adv-x="648" />
<glyph unicode="&#x2005;" horiz-adv-x="486" />
<glyph unicode="&#x2006;" horiz-adv-x="324" />
<glyph unicode="&#x2007;" horiz-adv-x="324" />
<glyph unicode="&#x2008;" horiz-adv-x="243" />
<glyph unicode="&#x2009;" horiz-adv-x="389" />
<glyph unicode="&#x200a;" horiz-adv-x="108" />
<glyph unicode="&#x2010;" horiz-adv-x="972" d="M109 463v104h757v-104h-757z" />
<glyph unicode="&#x2011;" horiz-adv-x="972" d="M109 463v104h757v-104h-757z" />
<glyph unicode="&#x2012;" horiz-adv-x="972" d="M109 463v104h757v-104h-757z" />
<glyph unicode="&#x2013;" horiz-adv-x="1077" d="M109 463v104h860v-104h-860z" />
<glyph unicode="&#x2014;" horiz-adv-x="1486" d="M109 463v104h1269v-104h-1269z" />
<glyph unicode="&#x2018;" horiz-adv-x="387" d="M86 1495h117l90 -418h-82z" />
<glyph unicode="&#x2019;" horiz-adv-x="387" d="M90 1077l90 418h117l-127 -418h-80z" />
<glyph unicode="&#x201a;" horiz-adv-x="389" d="M68 -240l90 418h116l-124 -418h-82z" />
<glyph unicode="&#x201c;" horiz-adv-x="600" d="M90 1495h113l90 -418h-78zM307 1495h111l90 -418h-80z" />
<glyph unicode="&#x201d;" horiz-adv-x="600" d="M90 1077l90 418h117l-127 -418h-80zM305 1077l90 418h117l-125 -418h-82z" />
<glyph unicode="&#x201e;" horiz-adv-x="604" d="M72 -240l90 418h117l-125 -418h-82zM287 -240l92 418h117l-127 -418h-82z" />
<glyph unicode="&#x2022;" horiz-adv-x="624" d="M190 514q0 51 36 87t87 36t87 -36t36 -87t-36 -87t-87 -36t-87 36t-36 87z" />
<glyph unicode="&#x2026;" horiz-adv-x="1062" d="M92 84q0 43 31 72.5t72 29.5q45 0 74.5 -29.5t29.5 -72.5t-29.5 -73.5t-74.5 -30.5t-74 30.5t-29 73.5zM428 84q0 43 30.5 72.5t71.5 29.5q45 0 75 -29.5t30 -72.5t-30 -73.5t-75 -30.5t-73.5 30.5t-28.5 73.5zM764 84q0 43 30.5 72.5t71.5 29.5q45 0 75 -29.5t30 -72.5 t-30 -73.5t-75 -30.5t-73.5 30.5t-28.5 73.5z" />
<glyph unicode="&#x202f;" horiz-adv-x="389" />
<glyph unicode="&#x2039;" horiz-adv-x="591" d="M143 473v78l308 244v-99l-236 -186l236 -182v-99z" />
<glyph unicode="&#x203a;" horiz-adv-x="591" d="M143 229v99l234 184l-234 184v101l308 -244v-80z" />
<glyph unicode="&#x205f;" horiz-adv-x="486" />
<glyph unicode="&#x20ac;" d="M63 463v96h138v377h-138v96h138q0 106 34.5 195.5t96 153t147.5 99.5t189 36q115 0 204 -41t148 -111l-82 -74q-92 117 -268 117q-166 0 -257 -101.5t-94 -273.5h580l-16 -96h-564v-377h502l-16 -96h-486v-6q0 -174 90.5 -271.5t256.5 -97.5q197 0 284 129l92 -76 q-59 -78 -154 -119.5t-220 -41.5q-223 0 -345 128t-122 349v6h-138z" />
<glyph unicode="&#x2122;" horiz-adv-x="1394" d="M76 1415v80h475v-80h-193v-514h-88v514h-194zM627 901v594h82l243 -324l252 324h76v-594h-88v445l-240 -304l-239 306v-447h-86z" />
<glyph unicode="&#x25fc;" horiz-adv-x="1024" d="M0 0v1024h1024v-1024h-1024z" />
<glyph unicode="&#xfb01;" horiz-adv-x="1042" d="M74 920v104h174v98q0 111 17.5 182.5t59.5 114.5t112.5 59.5t178.5 16.5h13v-109q-84 0 -136.5 -9t-80 -37.5t-36.5 -81t-9 -138.5v-96h262v-104h-262v-920h-119v920h-174zM743 1346q0 43 31 72.5t72 29.5q45 0 74.5 -29.5t29.5 -72.5t-29.5 -74t-74.5 -31t-74 31t-29 74 zM788 0v1024h117v-1024h-117z" />
<glyph unicode="&#xfb02;" horiz-adv-x="1044" d="M74 920v104h174v98q0 111 17.5 182.5t59.5 114.5t112.5 59.5t178.5 16.5h13v-109q-84 0 -136.5 -9t-80 -37.5t-36.5 -81t-9 -138.5v-96h262v-104h-262v-920h-119v920h-174zM788 0v1495h117v-1495h-117z" />
</font>
</defs>
</svg>
