<?xml version="1.0" standalone="no"?>
<!DOCTYPE svg PUBLIC "-//W3C//DTD SVG 1.1//EN" "http://www.w3.org/Graphics/SVG/1.1/DTD/svg11.dtd" >
<svg xmlns="http://www.w3.org/2000/svg" xmlns:xlink="http://www.w3.org/1999/xlink" version="1.1">
<metadata></metadata>
<defs>
<font id="sharp_sans_display_no1bold" horiz-adv-x="423" >
<font-face units-per-em="2048" ascent="1536" descent="-512" />
<missing-glyph horiz-adv-x="382" />
<glyph horiz-adv-x="0" />
<glyph unicode="&#xd;" horiz-adv-x="382" />
<glyph horiz-adv-x="0" />
<glyph horiz-adv-x="0" />
<glyph unicode=" "  horiz-adv-x="382" />
<glyph unicode="&#x09;" horiz-adv-x="382" />
<glyph unicode="&#xa0;" horiz-adv-x="382" />
<glyph unicode="!" d="M43 139q0 76 46 123t122 47t123 -47t47 -123t-47 -122t-123 -46t-122 46t-46 122zM72 1255v240h280v-240q0 -102 -5 -213.5t-13 -222t-19.5 -217t-25.5 -199.5h-154q-14 92 -25.5 199t-19.5 217.5t-13 222t-5 213.5z" />
<glyph unicode="&#x22;" horiz-adv-x="663" d="M72 1323v172h219v-172q0 -25 -8.5 -69t-19.5 -89t-23.5 -84t-20.5 -57h-78q-8 18 -19 58t-22.5 85t-19.5 88t-8 68zM373 1323v172h219v-172q0 -25 -8.5 -69t-19.5 -89t-23.5 -84t-20.5 -57h-78q-8 18 -19 58t-22.5 85t-19.5 88t-8 68z" />
<glyph unicode="#" horiz-adv-x="1638" d="M51 313v273h299v344h-299v272h299v293h285v-293h352v293h285v-293h315v-272h-315v-344h315v-273h-315v-313h-285v313h-352v-313h-285v313h-299zM635 586h352v344h-352v-344z" />
<glyph unicode="$" horiz-adv-x="1204" d="M25 248l260 205q35 -59 85 -102.5t109 -67.5v383q-72 20 -143.5 53t-127.5 82t-92 118.5t-36 165.5q0 76 28.5 145.5t80 125t124 94.5t158.5 55v215h285v-221q117 -25 200.5 -77t153.5 -124l-236 -178q-49 72 -126 107v-346q72 -25 145.5 -59t131.5 -84t95 -122t37 -170 q0 -78 -26.5 -151.5t-78 -135t-126 -105.5t-170.5 -62v-238h-285v240q-145 27 -256 94.5t-190 159.5zM365 1096q0 -53 30.5 -83t83.5 -50v278q-53 -20 -83.5 -58t-30.5 -87zM748 274q57 25 88.5 73.5t31.5 101.5q0 51 -33.5 83.5t-86.5 55.5v-314z" />
<glyph unicode="%" horiz-adv-x="1685" d="M20 0l1285 1495h360l-1284 -1495h-361zM41 1149q0 76 28.5 142.5t79 116.5t117 79t142.5 29t142 -29t116.5 -79t79 -116.5t28.5 -142.5t-28.5 -142.5t-79 -116.5t-117 -79t-141.5 -29q-76 0 -142.5 29t-117 79t-79 116.5t-28.5 142.5zM279 1149q0 -53 37.5 -91t91.5 -38 q53 0 91 38t38 91t-38 91t-91 38t-91 -38t-38 -91zM911 344q0 76 29 142.5t79 116.5t116.5 79t142.5 29t142.5 -29t116.5 -79t79 -116.5t29 -142.5t-29 -142.5t-79 -116.5t-116.5 -79t-142.5 -29t-142.5 29t-116.5 79t-79 116.5t-29 142.5zM1149 344q0 -53 38 -91t91 -38 t91 38t38 91t-38 91t-91 38t-91 -38t-38 -91z" />
<glyph unicode="&#x26;" horiz-adv-x="1531" d="M41 465q0 141 72.5 246.5t185.5 171.5q-35 55 -52.5 114.5t-17.5 130.5q0 82 33 153t90.5 123t136 82t170.5 30q94 0 168 -23t127.5 -61.5t89 -90t56.5 -108.5l-279 -98q-16 53 -52 90t-99 37q-61 0 -101.5 -37t-40.5 -97q0 -43 11.5 -77.5t39 -72.5t75.5 -88t122 -126 l277 -279q43 61 72.5 130t45.5 139h-251v270h534v-131q0 -141 -59.5 -295t-163.5 -289l305 -309h-389l-117 115q-88 -63 -188.5 -100.5t-210.5 -37.5q-164 0 -276.5 44.5t-182.5 114t-100.5 156.5t-30.5 173zM324 467q0 -47 19 -91t58 -77t96.5 -52.5t131.5 -19.5 q117 0 221 64l-309 313q-23 23 -43.5 42.5t-38.5 39.5q-66 -41 -100.5 -92t-34.5 -127z" />
<glyph unicode="'" horiz-adv-x="362" d="M72 1323v172h219v-172q0 -25 -8.5 -69t-19.5 -89t-23.5 -84t-20.5 -57h-78q-8 18 -19 58t-22.5 85t-19.5 88t-8 68z" />
<glyph unicode="(" horiz-adv-x="790" d="M41 512q0 174 39 320.5t110.5 269.5t172 227.5t225.5 194.5l190 -205q-96 -63 -176 -144t-138 -181.5t-91 -220.5t-33 -261q0 -268 114.5 -466t333.5 -333l-176 -233q-127 86 -232.5 192.5t-181 234.5t-116.5 278.5t-41 326.5z" />
<glyph unicode=")" horiz-adv-x="790" d="M2 -291q219 135 334 333t115 466q0 141 -33 261t-91.5 220.5t-139.5 181t-175 144.5l191 205q125 -90 225 -194.5t172 -227.5t111 -269.5t39 -320.5q0 -176 -42 -326.5t-117 -278.5t-180.5 -234.5t-232.5 -192.5z" />
<glyph unicode="*" horiz-adv-x="825" d="M39 1061l221 74l-221 77l125 209l174 -155l-47 231h244l-48 -235l181 159l120 -213l-229 -75l229 -76l-124 -209l-175 156l46 -232h-244l47 232l-180 -156z" />
<glyph unicode="+" horiz-adv-x="901" d="M72 627v239h262v258h235v-258h260v-239h-260v-260h-235v260h-262z" />
<glyph unicode="," d="M43 -240l70 418h247l-143 -418h-174z" />
<glyph unicode="-" horiz-adv-x="901" d="M72 401v240h757v-240h-757z" />
<glyph unicode="." d="M43 139q0 76 46 123t122 47t123 -47t47 -123t-47 -122t-123 -46t-122 46t-46 122z" />
<glyph unicode="/" horiz-adv-x="1048" d="M20 0l709 1495h301l-708 -1495h-302z" />
<glyph unicode="0" horiz-adv-x="1204" d="M92 467v549q0 106 37 197.5t104.5 159t161.5 105.5t207 38q117 0 211 -39t160.5 -106.5t102.5 -159t36 -193.5v-551q0 -111 -35 -200t-100.5 -153.5t-160.5 -99t-214 -34.5q-123 0 -218 35.5t-159.5 100t-98.5 153.5t-34 198zM377 481q0 -94 56 -156.5t167 -62.5 t169 62.5t58 154.5v527q0 104 -58 166.5t-165 62.5q-111 0 -169 -65.5t-58 -163.5v-525z" />
<glyph unicode="1" horiz-adv-x="1204" d="M92 0v272h373v801q-35 -53 -103.5 -88t-138.5 -35h-22v299h10q74 0 124 23.5t82 59.5t45 79t13 84h275v-1223h362v-272h-1020z" />
<glyph unicode="2" horiz-adv-x="1204" d="M59 1182q74 154 209 244t332 90q123 0 219 -33t164 -89.5t102.5 -133t34.5 -164.5q0 -90 -36.5 -160t-95 -128t-131.5 -106.5t-146 -93.5q-63 -39 -124 -76.5t-107 -77.5t-74.5 -85t-28.5 -97h735v-272h-1020v268q0 96 39 174t101.5 142.5t139.5 118t152 100.5 q59 37 114.5 71.5t98.5 70.5t68.5 73t25.5 80q0 72 -58 122t-171 50q-111 0 -182.5 -58.5t-114.5 -152.5z" />
<glyph unicode="3" horiz-adv-x="1204" d="M45 256l248 178q59 -104 139 -149t182 -45q104 0 174 53t70 151q0 84 -53 135.5t-170 51.5h-197v262h193q59 0 101 16.5t67.5 44t38 64.5t12.5 76q0 33 -15.5 63.5t-44 55t-71.5 40t-101 15.5q-123 0 -188 -44t-113 -141l-247 123q82 158 219 234t327 76q111 0 204 -30 t162 -84t106.5 -130t37.5 -166q0 -111 -45 -197t-129 -141q90 -49 140.5 -131t50.5 -201q0 -96 -36 -179t-104.5 -144.5t-167 -97t-223.5 -35.5q-195 0 -327.5 65.5t-239.5 210.5z" />
<glyph unicode="4" horiz-adv-x="1204" d="M82 303v260l571 932h312v-932h157v-260h-157v-303h-277v303h-606zM377 563h311v506z" />
<glyph unicode="5" horiz-adv-x="1204" d="M51 270l277 160q31 -86 101.5 -137t174.5 -51q49 0 94 19.5t81 54t56.5 82.5t20.5 106q0 55 -17.5 104t-51 86t-82 58.5t-109.5 21.5q-98 0 -159.5 -41t-104.5 -106l-254 131l106 737h895v-266h-671l-39 -264q47 29 112.5 49t157.5 20q102 0 193.5 -32.5t161 -99 t109.5 -166t40 -234.5q0 -111 -41 -207t-112.5 -166t-171 -109.5t-218.5 -39.5q-213 0 -348 82.5t-201 207.5z" />
<glyph unicode="6" horiz-adv-x="1204" d="M61 498q0 106 31 202.5t84 173.5l383 621h336l-315 -489q39 12 82 12q100 0 187 -38t152.5 -106.5t103.5 -164t38 -209.5q0 -115 -41 -210t-114 -165t-171 -107.5t-213 -37.5q-119 0 -218 39.5t-172 110.5t-113 165t-40 203zM340 504q0 -55 20.5 -103.5t55.5 -84t82 -57 t100 -21.5t101.5 21.5t84 57t57 85t21.5 104.5q0 53 -21.5 101t-57 85t-84 58.5t-101.5 21.5t-100 -21.5t-82 -58.5t-55.5 -85t-20.5 -103z" />
<glyph unicode="7" horiz-adv-x="1204" d="M92 1223v272h1020v-248l-588 -1247h-303l592 1223h-721z" />
<glyph unicode="8" horiz-adv-x="1204" d="M68 449q0 115 48 201.5t134 146.5q-61 53 -96 124.5t-35 165.5q0 98 34.5 177t99 134.5t156 86.5t201.5 31q109 0 199 -31t154.5 -86.5t99.5 -134t35 -177.5q0 -94 -37 -166.5t-103 -125.5q86 -59 132.5 -145.5t46.5 -200.5q0 -109 -37 -196t-105.5 -147.5t-169 -93 t-225.5 -32.5q-254 0 -393 125.5t-139 343.5zM342 449q0 -92 62.5 -155t195.5 -63q131 0 197.5 62.5t66.5 155.5q0 92 -65.5 154.5t-192.5 62.5q-129 0 -196.5 -63.5t-67.5 -153.5zM379 1087q0 -78 55 -131t170 -53q117 0 175.5 53.5t58.5 130.5q0 78 -58.5 132.5 t-167.5 54.5q-111 0 -172 -54.5t-61 -132.5z" />
<glyph unicode="9" horiz-adv-x="1204" d="M61 995q0 115 41 210t113 165t171 108t214 38q119 0 218.5 -40t171 -111t112.5 -165t41 -203q0 -106 -31 -202.5t-84 -173.5l-383 -621h-336l312 483q-20 -4 -40 -6t-38 -2q-100 0 -187.5 38t-153 107.5t-103.5 165t-38 209.5zM342 989q0 -53 21.5 -101t57.5 -85 t84 -58.5t101 -21.5t100.5 21.5t82 58.5t55 85t20.5 103t-20.5 103.5t-55 84t-82 57t-100.5 21.5t-101 -21.5t-84 -57t-57.5 -85t-21.5 -104.5z" />
<glyph unicode=":" d="M43 139q0 76 46 123t122 47t123 -47t47 -123t-47 -122t-123 -46t-122 46t-46 122zM43 881q0 76 46 123t122 47t123 -47.5t47 -122.5q0 -76 -47 -122t-123 -46t-122 46t-46 122z" />
<glyph unicode=";" d="M43 -240l70 418h247l-143 -418h-174zM43 881q0 76 46 123t122 47t123 -47.5t47 -122.5q0 -76 -47 -122t-123 -46t-122 46t-46 122z" />
<glyph unicode="&#x3c;" horiz-adv-x="901" d="M72 625v239l757 273v-248l-450 -146l450 -145v-248z" />
<glyph unicode="=" horiz-adv-x="901" d="M72 453v239h757v-239h-757zM72 795v239h757v-239h-757z" />
<glyph unicode="&#x3e;" horiz-adv-x="901" d="M72 350v248l450 145l-450 146v248l757 -273v-239z" />
<glyph unicode="?" horiz-adv-x="1054" d="M47 1182q37 150 153.5 242t315.5 92q104 0 191.5 -31t151 -87.5t98 -136t34.5 -176.5q0 -96 -27.5 -158.5t-68.5 -107.5t-90 -79.5t-90 -78t-69 -102.5t-28 -151v-23h-251v23q0 125 24.5 206.5t62.5 137t81 92.5t80.5 71.5t62 73.5t24.5 101q0 78 -51 128t-139 50 q-80 0 -132 -50.5t-69 -123.5zM324 139q0 76 46 123t122 47t123 -47t47 -123t-47.5 -122t-122.5 -46q-76 0 -122 46t-46 122z" />
<glyph unicode="@" horiz-adv-x="1609" d="M41 512q0 160 59.5 299t163 243.5t242.5 165t299 60.5q176 0 317.5 -59.5t240.5 -155.5t152.5 -221t53.5 -254q0 -88 -24.5 -166t-71 -137.5t-112 -94t-144.5 -34.5q-92 0 -152.5 32.5t-95.5 79.5q-39 -51 -102.5 -80.5t-153.5 -29.5q-61 0 -122 24.5t-107 70.5 t-71.5 114.5t-15.5 158.5q10 94 48 164t91.5 115t114 67.5t113.5 22.5q66 0 115 -20.5t82 -55.5q2 41 6 53q2 8 2 11h223l-39 -371q-8 -63 11.5 -99t70.5 -36q47 0 79 58.5t32 152.5q0 86 -38 171t-108 151.5t-170 107.5t-225 41q-115 0 -213 -43t-172 -118t-116 -175 t-42 -215t42 -214t116 -174t172 -118t213 -43q123 0 225.5 48t177.5 132l170 -139q-104 -119 -251.5 -188.5t-321.5 -69.5q-160 0 -299 60.5t-242.5 164t-163 243.5t-59.5 300zM623 535q-10 -70 31.5 -117t109.5 -47q70 0 118 48t54 116q8 66 -31 113.5t-106 47.5 q-35 0 -66 -12t-55.5 -33.5t-38.5 -51.5t-16 -64z" />
<glyph unicode="A" horiz-adv-x="1404" d="M29 0l530 1495h287l530 -1495h-297l-90 260h-573l-90 -260h-297zM510 532h385l-193 558z" />
<glyph unicode="B" horiz-adv-x="1167" d="M82 0v1495h467q250 0 387 -107.5t137 -312.5q0 -193 -162 -289q104 -47 159.5 -133t55.5 -209q0 -223 -144 -333.5t-394 -110.5h-506zM367 262h221q125 0 188.5 48t63.5 141q0 45 -12.5 79.5t-43 57t-82 35t-129.5 12.5h-206v-373zM367 901h182q133 0 185 48t52 126 q0 82 -54 120t-181 38h-184v-332z" />
<glyph unicode="C" horiz-adv-x="1505" d="M41 748q0 168 59.5 308t163 242.5t243.5 160t302 57.5q104 0 201.5 -27t182.5 -75t153.5 -116.5t117.5 -152.5l-250 -160q-63 117 -162.5 183.5t-242.5 66.5q-104 0 -193.5 -38t-154 -103.5t-101 -154.5t-36.5 -191q0 -100 35.5 -188.5t100 -154t152.5 -103.5t191 -38 q154 0 260 79t164 200l260 -137q-49 -96 -120 -174t-158 -134.5t-188 -87t-212 -30.5q-174 0 -315.5 60t-241.5 163.5t-155.5 244t-55.5 300.5z" />
<glyph unicode="D" horiz-adv-x="1320" d="M82 0v1495h407q190 0 337 -57.5t248.5 -157.5t153.5 -236.5t52 -295.5q0 -160 -57.5 -297.5t-161 -236.5t-245.5 -156.5t-314 -57.5h-420zM367 264h102q121 0 218 37t166 101.5t105.5 153.5t36.5 192q0 106 -32.5 194t-99 152.5t-168 100.5t-238.5 36h-90v-967z" />
<glyph unicode="E" horiz-adv-x="1034" d="M82 0v1495h887v-272h-602v-336h602v-273h-602v-342h602v-272h-887z" />
<glyph unicode="F" horiz-adv-x="999" d="M82 0v1495h846v-272h-561v-336h561v-273h-561v-614h-285z" />
<glyph unicode="G" horiz-adv-x="1589" d="M41 748q0 160 57.5 300t158.5 243.5t241.5 164t306.5 60.5q117 0 220 -29t189 -79t155 -120.5t116 -154.5l-250 -152q-139 258 -428 258q-102 0 -190.5 -39t-154 -106.5t-102 -156.5t-36.5 -189q0 -102 36.5 -192.5t102 -157t156 -104.5t198.5 -38q164 0 273.5 85 t150.5 228h-469v273h776v-115q0 -152 -52 -287t-147.5 -237.5t-230.5 -162.5t-301 -60q-176 0 -318.5 61t-244.5 166.5t-157.5 245t-55.5 295.5z" />
<glyph unicode="H" horiz-adv-x="1296" d="M82 0v1495h285v-610h563v610h284v-1495h-284v612h-563v-612h-285z" />
<glyph unicode="I" horiz-adv-x="468" d="M92 0v1495h285v-1495h-285z" />
<glyph unicode="J" horiz-adv-x="1030" d="M37 324l282 90q14 -72 64.5 -120t122.5 -48q84 0 121 55t37 131v1063h284v-1036q0 -227 -113.5 -353t-324.5 -126q-184 0 -310 92t-163 252z" />
<glyph unicode="K" horiz-adv-x="1261" d="M82 0v1495h285v-602l483 602h346l-471 -582l512 -913h-324l-391 715l-155 -195v-520h-285z" />
<glyph unicode="L" horiz-adv-x="978" d="M82 0v1495h285v-1223h540v-272h-825z" />
<glyph unicode="M" horiz-adv-x="1628" d="M82 0v1495h283l448 -623l465 623h268v-1495h-284v1036l-451 -608l-444 602v-1030h-285z" />
<glyph unicode="N" horiz-adv-x="1406" d="M82 0v1495h324l634 -1006v1006h285v-1495h-303l-655 1038v-1038h-285z" />
<glyph unicode="O" horiz-adv-x="1611" d="M41 748q0 160 59.5 299t163 243.5t242.5 165t299 60.5t299 -60.5t243.5 -165t164 -244t59.5 -298.5q0 -160 -59.5 -300.5t-164 -244t-243.5 -163.5t-299 -60t-299 60t-242.5 163.5t-163 244t-59.5 300.5zM324 748q0 -100 37.5 -189.5t102 -155t153 -104.5t188.5 -39 t188 39t153.5 104.5t103.5 154.5t38 190q0 100 -38 189t-103.5 154.5t-153.5 104.5t-188 39t-188.5 -39t-153 -104.5t-102 -154.5t-37.5 -189z" />
<glyph unicode="P" horiz-adv-x="1185" d="M82 0v1495h514q117 0 215 -42t170 -113.5t113 -170t41 -208.5q0 -111 -41 -209.5t-113 -170t-171 -113.5t-216 -42h-227v-426h-285zM367 690h208q61 0 111.5 21.5t86.5 58.5t55.5 86t19.5 105q0 55 -19.5 104t-55.5 86t-86 58.5t-112 21.5h-208v-541z" />
<glyph unicode="Q" horiz-adv-x="1611" d="M41 748q0 160 59.5 299t163 243.5t242.5 165t299 60.5t299 -60.5t243.5 -165t164 -244t59.5 -298.5q0 -135 -47 -257t-129 -221l209 -270h-349l-69 90q-86 -53 -182.5 -81.5t-198.5 -28.5q-160 0 -299 60t-242.5 163.5t-163 244t-59.5 300.5zM324 748q0 -100 37.5 -189.5 t102 -155t153 -104.5t188.5 -39q117 0 215 47l-328 432h340l189 -245q33 55 50 118.5t17 135.5q0 100 -38 189t-103.5 154.5t-153.5 104.5t-188 39t-188.5 -39t-153 -104.5t-102 -154.5t-37.5 -189z" />
<glyph unicode="R" horiz-adv-x="1193" d="M82 0v1495h479q135 0 239.5 -38t176.5 -106.5t109.5 -166t37.5 -213.5q0 -133 -63.5 -251t-183.5 -183l294 -537h-323l-232 451h-249v-451h-285zM367 713h170q86 0 144 21.5t94 58t50.5 86t14.5 104.5q0 113 -72 179.5t-231 66.5h-170v-516z" />
<glyph unicode="S" horiz-adv-x="1153" d="M4 248l260 205q55 -96 139 -148.5t185 -52.5q55 0 96 16.5t69.5 44t43 62.5t14.5 74q0 45 -25.5 77.5t-68.5 55t-99.5 41t-115.5 36.5q-76 23 -152 52.5t-136 77t-98 118t-38 178.5q0 90 37 168t103.5 136.5t157.5 92.5t199 34q92 0 165 -16.5t133.5 -45.5t110.5 -68.5 t95 -87.5l-235 -178q-94 141 -266 142q-100 0 -152.5 -47.5t-52.5 -118.5q0 -43 24.5 -74t66.5 -53.5t97 -41t115 -38.5q76 -25 152.5 -56.5t139 -82t101.5 -124t39 -180.5q0 -90 -35 -174t-100.5 -148.5t-162.5 -104t-220 -39.5q-203 0 -344.5 76.5t-241.5 191.5z" />
<glyph unicode="T" horiz-adv-x="1181" d="M51 1223v272h1079v-272h-397v-1223h-284v1223h-398z" />
<glyph unicode="U" horiz-adv-x="1243" d="M82 518v977h285v-995q0 -53 19.5 -100.5t53 -82t79.5 -54t99 -19.5t100.5 19.5t82.5 54t55.5 81.5t20.5 101v995h284v-977q0 -133 -41 -234.5t-112.5 -169t-170.5 -101t-216 -33.5t-215.5 33.5t-171 101t-112.5 169t-40 234.5z" />
<glyph unicode="V" horiz-adv-x="1343" d="M29 1495h295l348 -1061l348 1061h295l-500 -1495h-287z" />
<glyph unicode="W" horiz-adv-x="2088" d="M27 1495h297l278 -1034l307 1034h281l307 -1030l275 1030h288l-422 -1495h-280l-309 1044l-308 -1044h-290z" />
<glyph unicode="X" horiz-adv-x="1288" d="M20 0l455 756l-446 739h319l295 -491l297 491h320l-449 -739l457 -756h-320l-305 506l-303 -506h-320z" />
<glyph unicode="Y" horiz-adv-x="1288" d="M25 1495h313l305 -514l307 514h314l-480 -793v-702h-284v709z" />
<glyph unicode="Z" horiz-adv-x="1132" d="M72 0v262l651 961h-629v272h967v-260l-653 -963h653v-272h-989z" />
<glyph unicode="[" horiz-adv-x="702" d="M72 -471v1966h559v-272h-275v-1422h275v-272h-559z" />
<glyph unicode="\" horiz-adv-x="1048" d="M20 1495h302l708 -1495h-301z" />
<glyph unicode="]" horiz-adv-x="702" d="M72 -199h274v1422h-274v272h559v-1966h-559v272z" />
<glyph unicode="^" horiz-adv-x="964" d="M152 1126l243 349h174l244 -349h-211l-121 181l-119 -181h-210z" />
<glyph unicode="_" horiz-adv-x="901" d="M72 -20h757v-240h-757v240z" />
<glyph unicode="`" horiz-adv-x="964" d="M213 1475h262l234 -349h-189z" />
<glyph unicode="a" horiz-adv-x="1196" d="M41 512q0 135 45 235.5t116.5 167t161 98t175.5 31.5q100 0 177 -33.5t128 -86.5v100h280v-1024h-280v115q-51 -59 -130 -97t-179 -38q-82 0 -169 32.5t-160 98t-119 166t-46 235.5zM315 514q0 -59 20.5 -109.5t57.5 -87t87.5 -58t109.5 -21.5q57 0 105 21.5t83 59 t54.5 88t19.5 107.5t-19.5 107.5t-54.5 87t-83 58t-105 21.5q-59 0 -109.5 -20t-87.5 -57t-57.5 -87.5t-20.5 -109.5z" />
<glyph unicode="b" horiz-adv-x="1187" d="M72 0v1495h280v-584q49 59 126 96t181 37q86 0 175.5 -31.5t160 -98t115.5 -167t45 -235.5t-46 -235.5t-117.5 -166t-158.5 -98t-169 -32.5q-102 0 -182.5 35.5t-129.5 95.5v-111h-280zM344 514q0 -57 19.5 -107.5t54.5 -88t83 -59t105 -21.5t107.5 21.5t87.5 58t58.5 87 t21.5 109.5t-21.5 109.5t-58.5 87.5t-87 57t-108 20q-57 0 -105 -21.5t-83 -58t-54.5 -87t-19.5 -107.5z" />
<glyph unicode="c" horiz-adv-x="1095" d="M41 512q0 111 41 208t113.5 169t169 113.5t206.5 41.5q88 0 165 -23.5t139.5 -66.5t110.5 -102t79 -131l-250 -107q-29 72 -94.5 118t-147.5 46q-55 0 -103 -20.5t-83 -57t-55.5 -85t-20.5 -103.5t20.5 -103.5t55.5 -85t83 -57t103 -20.5q82 0 147.5 46t94.5 118 l250 -107q-31 -72 -79 -131t-110.5 -102t-139.5 -66.5t-165 -23.5q-111 0 -207 41.5t-168.5 113.5t-113.5 169t-41 208z" />
<glyph unicode="d" horiz-adv-x="1196" d="M41 512q0 135 45 235.5t116.5 167t161 98t175.5 31.5q100 0 177 -33.5t128 -86.5v571h280v-1495h-280v115q-51 -59 -130 -97t-179 -38q-82 0 -169 32.5t-160 98t-119 166t-46 235.5zM315 514q0 -59 20.5 -109.5t57.5 -87t87.5 -58t109.5 -21.5q57 0 105 21.5t83 59 t54.5 88t19.5 107.5t-19.5 107.5t-54.5 87t-83 58t-105 21.5q-59 0 -109.5 -20t-87.5 -57t-57.5 -87.5t-20.5 -109.5z" />
<glyph unicode="e" horiz-adv-x="1144" d="M41 512q0 111 42 208t113.5 169t169 113.5t207.5 41.5q117 0 214.5 -40.5t167 -113.5t108.5 -169t39 -207v-102h-791q25 -86 93.5 -136.5t179.5 -50.5q86 0 151.5 43t100.5 117l223 -133q-66 -121 -185.5 -196.5t-291.5 -75.5q-121 0 -220.5 41.5t-170 113.5t-110.5 169 t-40 208zM324 637h495q-29 80 -91.5 121t-152.5 41t-154.5 -45t-96.5 -117z" />
<glyph unicode="f" horiz-adv-x="749" d="M51 772v252h174v27q0 125 22.5 210t75 137t138.5 74.5t215 22.5h22v-262q-66 0 -103.5 -6t-57 -25.5t-25.5 -56.5t-6 -96v-25h192v-252h-192v-772h-281v772h-174z" />
<glyph unicode="g" horiz-adv-x="1196" d="M41 512q0 135 45 235.5t116.5 167t161 98t175.5 31.5q100 0 177 -36.5t128 -94.5v111h280v-995q0 -109 -33.5 -204t-100 -166t-166 -112t-228.5 -41q-98 0 -182 24t-151.5 63.5t-118 94t-81.5 113.5l248 140q41 -80 111 -127t174 -47q57 0 102 20t78 55t50.5 81t17.5 95 v97q-51 -59 -130 -97t-179 -38q-82 0 -169 32.5t-160 98t-119 166t-46 235.5zM315 514q0 -59 20.5 -109.5t57.5 -87t87.5 -58t109.5 -21.5q57 0 105 21.5t83 59t54.5 88t19.5 107.5t-19.5 107.5t-54.5 87t-83 58t-105 21.5q-59 0 -109.5 -20t-87.5 -57t-57.5 -87.5 t-20.5 -109.5z" />
<glyph unicode="h" horiz-adv-x="1091" d="M72 0v1495h278v-584q51 61 123 97t160 36q182 0 284.5 -110.5t102.5 -308.5v-625h-285v586q0 104 -47 161.5t-141 57.5q-80 0 -137.5 -58.5t-57.5 -187.5v-559h-280z" />
<glyph unicode="i" d="M43 1294q0 76 46 123t122 47t123 -47t47 -123t-47 -122t-123 -46t-122 46t-46 122zM72 0v1024h280v-1024h-280z" />
<glyph unicode="j" d="M-121 -209q63 0 102 6t58.5 25.5t26 56.5t6.5 96v1049h280v-1051q0 -125 -21.5 -210t-72.5 -137t-133 -74.5t-205 -22.5h-41v262zM43 1294q0 76 46 123t122 47t123 -47t47 -123t-47 -122t-123 -46t-122 46t-46 122z" />
<glyph unicode="k" horiz-adv-x="1110" d="M72 0v1495h280v-924l377 453h326l-373 -442l393 -582h-307l-279 410l-137 -162v-248h-280z" />
<glyph unicode="l" d="M72 0v1495h280v-1495h-280z" />
<glyph unicode="m" horiz-adv-x="1718" d="M72 0v1024h278v-109q47 59 117 94t156 35q221 0 315 -161q53 74 136 117.5t183 43.5q197 0 293.5 -110.5t96.5 -308.5v-625h-285v588q0 104 -42 160.5t-136 56.5q-80 0 -132.5 -58.5t-52.5 -187.5v-559h-284v588q0 104 -42 160.5t-136 56.5q-80 0 -132.5 -58.5 t-52.5 -187.5v-559h-280z" />
<glyph unicode="n" horiz-adv-x="1091" d="M72 0v1024h278v-115q49 63 122 99t161 36q182 0 284.5 -110.5t102.5 -308.5v-625h-285v588q0 104 -47 160.5t-141 56.5q-80 0 -137.5 -58.5t-57.5 -187.5v-559h-280z" />
<glyph unicode="o" horiz-adv-x="1142" d="M41 512q0 111 41 208t113.5 169t169 113.5t206.5 41.5q111 0 207 -41.5t169 -113.5t114 -169t41 -208t-41 -208t-114 -169t-169 -113.5t-207 -41.5t-207 41.5t-168.5 113.5t-113.5 169t-41 208zM315 512q0 -55 19.5 -103.5t54.5 -84t81 -57t101 -21.5q53 0 100.5 21.5 t82 57t55 84t20.5 103.5t-20.5 103.5t-55 84t-81.5 57t-101 21.5q-55 0 -101 -21.5t-81 -57t-54.5 -84t-19.5 -103.5z" />
<glyph unicode="p" horiz-adv-x="1187" d="M72 -471v1495h280v-117q49 59 126 98t181 39q86 0 175.5 -31.5t160 -98t115.5 -167t45 -235.5t-46 -235.5t-117.5 -166t-158.5 -98t-169 -32.5q-102 0 -182.5 31.5t-129.5 88.5v-571h-280zM344 514q0 -57 19.5 -107.5t54.5 -88t83 -59t105 -21.5t107.5 21.5t87.5 58 t58.5 87t21.5 109.5t-21.5 109.5t-58.5 87.5t-87 57t-108 20q-57 0 -105 -21.5t-83 -58t-54.5 -87t-19.5 -107.5z" />
<glyph unicode="q" horiz-adv-x="1196" d="M41 512q0 135 45 235.5t116.5 167t161 98t175.5 31.5q100 0 177 -36.5t128 -94.5v111h280v-1495h-280v573q-51 -57 -130 -89.5t-179 -32.5q-82 0 -169 32.5t-160 98t-119 166t-46 235.5zM315 514q0 -59 20.5 -109.5t57.5 -87t87.5 -58t109.5 -21.5q57 0 105 21.5t83 59 t54.5 88t19.5 107.5t-19.5 107.5t-54.5 87t-83 58t-105 21.5q-59 0 -109.5 -20t-87.5 -57t-57.5 -87.5t-20.5 -109.5z" />
<glyph unicode="r" horiz-adv-x="790" d="M72 0v1024h278v-168q39 80 108.5 124t174.5 44h102v-272h-168q-113 0 -164 -62.5t-51 -206.5v-483h-280z" />
<glyph unicode="s" horiz-adv-x="956" d="M10 256l269 104q29 -72 84 -105.5t131 -33.5q70 0 105.5 27.5t35.5 64.5q0 20 -17.5 34.5t-47 25t-69.5 18.5l-85 17q-70 12 -135.5 32.5t-117.5 55t-84 90t-32 137.5q0 63 29.5 122.5t85 103.5t132.5 71q69 24 154 24h19q172 0 275.5 -65.5t158.5 -171.5l-248 -105 q-20 51 -69 82t-119 31t-101.5 -24.5t-31.5 -59.5t48 -52t165 -40q63 -12 129.5 -32.5t120 -56.5t87 -91.5t33.5 -136.5q0 -55 -26.5 -117t-79.5 -112q-53 -51 -135 -83q-77 -31 -180 -30h-13q-186 0 -300.5 70.5t-170.5 205.5z" />
<glyph unicode="t" horiz-adv-x="759" d="M51 772v252h174v240l281 153v-393h192v-252h-192v-326q0 -59 6 -96t25.5 -56.5t57.5 -25.5t103 -6v-262h-41q-123 0 -204.5 22.5t-133 75t-73 137t-21.5 209.5v328h-174z" />
<glyph unicode="u" horiz-adv-x="1091" d="M72 399v625h284v-588q0 -104 47.5 -160.5t141.5 -56.5q80 0 137 58.5t57 187.5v559h281v-1024h-279v113q-51 -61 -122.5 -97t-159.5 -36q-182 0 -284.5 110.5t-102.5 308.5z" />
<glyph unicode="v" horiz-adv-x="1116" d="M33 1024h289l239 -666l234 666h284l-377 -1024h-282z" />
<glyph unicode="w" horiz-adv-x="1810" d="M51 1024h281l209 -653l233 653h279l219 -653l221 653h279l-365 -1024h-270l-230 651l-239 -651h-273z" />
<glyph unicode="x" horiz-adv-x="1150" d="M31 0l377 520l-363 504h342l199 -287l194 287h330l-354 -506l383 -518h-342l-215 299l-209 -299h-342z" />
<glyph unicode="y" horiz-adv-x="1128" d="M25 1024h294l252 -631l236 631h291l-594 -1497h-281l209 518z" />
<glyph unicode="z" horiz-adv-x="1048" d="M61 0v250l539 526h-530v248h907v-252l-539 -524h549v-248h-926z" />
<glyph unicode="{" horiz-adv-x="757" d="M41 375v262q63 0 102 9t58.5 32.5t25.5 63.5t6 100v209q0 125 23 210t75 137t138 74.5t215 22.5h23v-262q-66 0 -104 -6t-57.5 -25.5t-25.5 -56.5t-6 -96v-209q0 -129 -35 -211t-121 -123q86 -41 121 -123t35 -211v-197q0 -59 6 -96t25.5 -56.5t57.5 -25.5t104 -6v-262 h-23q-129 0 -215 22.5t-138 74.5t-75 137t-23 210v197q0 59 -6 99t-25.5 63.5t-58.5 33t-102 9.5z" />
<glyph unicode="|" horiz-adv-x="428" d="M72 -471v1966h284v-1966h-284z" />
<glyph unicode="}" horiz-adv-x="757" d="M51 -209q63 0 102.5 6t58.5 25.5t25.5 56.5t6.5 96v197q0 129 33.5 211t119.5 123q-86 41 -119.5 123t-33.5 211v209q0 59 -6.5 96t-25.5 56.5t-58 25.5t-103 6v262h23q129 0 215 -22.5t138 -74.5t74.5 -137t22.5 -210v-209q0 -59 6.5 -99.5t25.5 -64t57 -32.5t104 -9 v-262q-66 0 -104 -9.5t-57 -33t-25.5 -63.5t-6.5 -99v-197q0 -125 -22.5 -210t-74.5 -137t-138 -74.5t-215 -22.5h-23v262z" />
<glyph unicode="~" horiz-adv-x="964" d="M129 1178q0 125 56.5 200.5t158.5 75.5q51 0 88 -15.5t68 -33.5q29 -18 54.5 -33.5t51.5 -15.5q55 0 56 90h161q0 -127 -53 -202t-162 -75q-59 0 -101 20.5t-77 41.5q-23 14 -43 24.5t-43 10.5q-53 0 -53 -88h-162z" />
<glyph unicode="&#xa1;" d="M43 883q0 76 46 123t122 47t123 -47t47 -123t-47 -122t-123 -46t-122 46t-46 122zM72 -231q0 102 5 213.5t13 222t19.5 217t25.5 199.5h154q14 -92 25.5 -199t19.5 -217.5t13 -222t5 -213.5v-240h-280v240z" />
<glyph unicode="&#xa2;" horiz-adv-x="1204" d="M61 547q0 98 31 186t86 161t131 124t166 76v268h285v-262q139 -31 239.5 -119t153.5 -211l-252 -108q-35 84 -107.5 135t-166.5 51q-61 0 -115.5 -23.5t-94.5 -64.5t-62.5 -95.5t-22.5 -117.5t22.5 -117.5t62.5 -95.5t94 -64.5t116 -23.5q94 0 166.5 51t107.5 133 l252 -106q-53 -125 -153.5 -212t-239.5 -118v-260h-285v266q-90 25 -166 76t-131 123.5t-86 161t-31 186.5z" />
<glyph unicode="&#xa3;" horiz-adv-x="1204" d="M68 211q0 104 67.5 174t190.5 70q47 0 90 -13.5t78 -33.5q-14 61 -57.5 125.5t-92.5 138.5h-233v225h110q-35 88 -35 190q0 96 32 175t92.5 135.5t144.5 87.5t188 31q190 0 304 -82t155 -222l-271 -96q-18 72 -62 112t-122 40q-88 0 -130 -49.5t-42 -126.5 q0 -51 13.5 -98.5t35.5 -96.5h394v-225h-285q29 -70 49 -149t20 -173q0 -57 -14 -106q39 -39 70 -39q41 0 52 24.5t11 94.5v165h291v-157q0 -92 -13.5 -159t-45 -110t-86 -63t-136.5 -20q-72 0 -129 27.5t-108 68.5q-41 -45 -94.5 -72t-118.5 -27q-164 0 -238.5 62.5 t-74.5 171.5zM305 209q0 -16 14 -28.5t43 -12.5q47 0 82 35q-27 18 -51 30.5t-47 12.5q-20 0 -30.5 -11.5t-10.5 -25.5z" />
<glyph unicode="&#xa4;" horiz-adv-x="1583" d="M61 1294l209 197l271 -283q57 31 121.5 48.5t136.5 17.5q137 0 254 -64l258 265l207 -201l-261 -266q35 -59 53.5 -127t18.5 -140q0 -150 -74 -270l263 -272l-207 -199l-262 270q-55 -29 -118.5 -45t-131.5 -16q-72 0 -138.5 17.5t-125.5 49.5l-263 -270l-206 203 l268 274q-66 115 -66 258q0 72 17.5 138.5t50.5 126.5zM543 741q0 -55 19.5 -103t54 -84t81 -57.5t101.5 -21.5q53 0 100 21.5t82 57.5t55.5 84t20.5 103t-20.5 103.5t-55.5 84.5t-82 57.5t-100 21.5q-55 0 -101.5 -21.5t-81 -57.5t-54 -84t-19.5 -104z" />
<glyph unicode="&#xa5;" horiz-adv-x="1204" d="M45 1495h320l239 -397l240 397h315l-416 -645v-47h299v-230h-299v-157h299v-230h-299v-186h-284v186h-297v230h297v157h-297v230h297v51z" />
<glyph unicode="&#xa6;" horiz-adv-x="428" d="M72 389h284v-860h-284v860zM72 635v860h284v-860h-284z" />
<glyph unicode="&#xa7;" horiz-adv-x="1173" d="M37 772q0 82 49 145.5t125 96.5q-63 80 -64 182q0 68 28 126t82 102t135 69t186 23q92 0 170.5 -24t139 -63.5t100.5 -90t56 -105.5l-268 -76q-10 57 -64.5 98t-140.5 41q-80 0 -118.5 -24.5t-38.5 -63.5q0 -53 77.5 -87t202.5 -62q92 -23 173 -49.5t140.5 -64.5 t94.5 -90t35 -126q0 -80 -43 -139.5t-113 -93.5q35 -35 52.5 -79t17.5 -100q0 -70 -34 -132t-95.5 -108t-147.5 -72.5t-192 -24.5q-98 0 -181.5 26.5t-148 70.5t-108.5 99t-60 113l283 78q18 -68 82.5 -111t154.5 -43q84 0 125 25.5t41 66.5q0 29 -22.5 47.5t-61.5 32.5 t-92 26.5t-115 26.5q-92 20 -173 47t-140.5 66t-94 92t-34.5 129zM319 805q0 -55 84 -86t238 -66q82 -18 145 -43q68 29 68 80q0 55 -84 86t-238 68q-78 16 -137 43q-76 -25 -76 -82z" />
<glyph unicode="&#xa8;" horiz-adv-x="964" d="M106 1266q0 74 45.5 120t118.5 46q74 0 120 -46.5t46 -119.5q0 -74 -46 -119t-120 -45t-119 45t-45 119zM528 1266q0 74 45 120t119 46t120 -46.5t46 -119.5q0 -74 -46 -119t-120 -45t-119 45t-45 119z" />
<glyph unicode="&#xa9;" horiz-adv-x="1611" d="M41 748q0 160 59.5 299t163 243.5t242.5 165t299 60.5t299 -60.5t243.5 -165t164 -244t59.5 -298.5q0 -160 -59.5 -300.5t-164 -244t-243.5 -163.5t-299 -60t-299 60t-242.5 163.5t-163 244t-59.5 300.5zM266 748q0 -115 41 -214.5t113 -175t170 -118.5t215 -43 q113 0 213 43t174 118.5t117 175t43 214.5q0 113 -43 213t-117 175.5t-174 118.5t-213 43q-117 0 -215 -43t-170 -118.5t-113 -176t-41 -212.5zM399 748q0 86 32 161.5t87 131t132 88t169 32.5q125 0 222.5 -64.5t142.5 -160.5l-217 -98q-10 39 -47 69.5t-103 30.5 q-80 0 -134 -55.5t-54 -134.5q0 -80 54 -135.5t134 -55.5q61 0 102.5 32t51.5 70l223 -77q-47 -104 -145.5 -176t-229.5 -72q-92 0 -169 32.5t-133 88t-87 131.5t-31 162z" />
<glyph unicode="&#xaa;" horiz-adv-x="739" d="M37 1198q0 84 26.5 142.5t67.5 95.5t88 54t90 17q51 0 89 -17t65 -46v51h205v-594h-205v62q-29 -33 -69 -52.5t-89 -19.5q-43 0 -90 17.5t-87 54t-65.5 95t-25.5 140.5zM238 1200q0 -53 33.5 -87t84.5 -34t82 36t31 85t-30.5 84t-82.5 35q-51 0 -84.5 -33t-33.5 -86z" />
<glyph unicode="&#xab;" horiz-adv-x="978" d="M92 444v158l377 232v-191l-203 -121l203 -119v-190zM510 444v158l377 232v-191l-203 -121l203 -119v-190z" />
<glyph unicode="&#xac;" horiz-adv-x="1234" d="M57 786v273h1106v-746h-284v473h-822z" />
<glyph unicode="&#xad;" horiz-adv-x="901" d="M72 401v240h757v-240h-757z" />
<glyph unicode="&#xae;" horiz-adv-x="1611" d="M41 512q0 160 59.5 299t163 243.5t242.5 165t299 60.5t299 -60.5t243.5 -165t164 -243.5t59.5 -299t-59.5 -300t-164 -243.5t-243.5 -164t-299 -60.5t-299 60.5t-242.5 164t-163 243.5t-59.5 300zM266 512q0 -115 41 -214t113 -175t170 -119t215 -43q113 0 213 43 t174 119t117 175t43 214q0 113 -43 213t-117 176t-174 119t-213 43q-117 0 -215 -43t-170 -119t-113 -176t-41 -213zM477 133v766h359q84 0 149.5 -23.5t109.5 -61.5t67.5 -88t23.5 -101q0 -86 -38 -147.5t-116 -90.5l150 -254h-260l-199 381h104q47 0 83 22.5t36 75.5 t-37 73t-86 20h-110v-572h-236z" />
<glyph unicode="&#xaf;" horiz-adv-x="964" d="M213 1126v177h541v-177h-541z" />
<glyph unicode="&#xb0;" horiz-adv-x="815" d="M41 1149q0 76 28.5 142.5t79 116.5t117 79t142.5 29t142 -29t116.5 -79t79 -116.5t28.5 -142.5t-28.5 -142.5t-79 -116.5t-116.5 -79t-142 -29t-142.5 29t-117 79t-79 116.5t-28.5 142.5zM279 1149q0 -53 38 -91t91 -38t91 38t38 91t-38 91t-91 38t-91 -38t-38 -91z" />
<glyph unicode="&#xb1;" horiz-adv-x="901" d="M72 238v239h757v-239h-757zM72 852v240h262v258h235v-258h260v-240h-260v-260h-235v260h-262z" />
<glyph unicode="&#xb2;" horiz-adv-x="675" d="M6 1298q47 98 129 153.5t203 55.5q70 0 129 -19.5t100 -55t64.5 -84t23.5 -105.5q0 -61 -22.5 -108.5t-58 -82t-78.5 -61t-84 -47.5q-51 -27 -90 -49.5t-43 -46.5h370v-217h-622v172q0 63 21.5 112.5t55 86t75.5 63.5t83 49q61 35 106.5 62.5t45.5 64.5q0 27 -19.5 45.5 t-60.5 18.5q-47 0 -78 -35t-47 -76z" />
<glyph unicode="&#xb3;" horiz-adv-x="665" d="M8 727l178 160q51 -55 123 -56q39 0 63.5 17.5t24.5 52.5t-32.5 50.5t-83.5 15.5h-91v204h86q102 0 103 70q0 61 -84 62q-33 0 -60.5 -15.5t-44.5 -40.5l-167 146q53 53 129.5 83.5t150.5 30.5q143 0 233.5 -68.5t90.5 -189.5q0 -100 -84 -168q49 -31 76.5 -78t27.5 -108 q0 -59 -22.5 -109.5t-64.5 -87t-102 -58.5t-134 -22q-88 0 -173 26t-143 83z" />
<glyph unicode="&#xb4;" horiz-adv-x="964" d="M213 1126l233 349h263l-308 -349h-188z" />
<glyph unicode="&#xb5;" horiz-adv-x="1071" d="M61 -471v1495h285v-532q0 -131 46 -201t140 -70q80 0 138.5 57.5t58.5 186.5v559h281v-1024h-279v98q-45 -55 -109.5 -86.5t-142.5 -31.5q-39 0 -73.5 8t-65.5 22v-481h-279z" />
<glyph unicode="&#xb6;" horiz-adv-x="1353" d="M41 1057q0 92 34 172t93 139t140 93t175 34h799v-1495h-244v1231h-123v-1231h-243v618h-187q-96 0 -177 34t-140 93.5t-93 139.5t-34 172z" />
<glyph unicode="&#xb7;" d="M43 520q0 76 46 123t122 47t123 -47t47 -123t-47 -122t-123 -46t-122 46t-46 122z" />
<glyph unicode="&#xb8;" horiz-adv-x="964" d="M139 -371l160 97q35 -29 68.5 -48.5t87.5 -19.5q45 0 77.5 17.5t32.5 43.5q0 55 -116 56h-105v225h174v-109q117 4 176.5 -42t59.5 -121q0 -47 -24.5 -88t-69 -70t-102.5 -45.5t-126 -16.5q-80 0 -156.5 34t-136.5 87z" />
<glyph unicode="&#xb9;" horiz-adv-x="610" d="M27 631v217h166v332q-23 -29 -56 -41.5t-74 -12.5h-12v224h6q43 0 71 14t44 35.5t22.5 47.5t6.5 48h227v-647h160v-217h-561z" />
<glyph unicode="&#xba;" horiz-adv-x="686" d="M37 1198q0 63 24.5 120.5t65.5 98.5t97.5 65.5t119.5 24.5t118.5 -24.5t97.5 -65.5t65.5 -98t23.5 -121q0 -63 -23.5 -119.5t-65.5 -97.5t-97.5 -65.5t-118.5 -24.5t-119.5 24.5t-97.5 65.5t-65.5 97.5t-24.5 119.5zM236 1198q0 -47 30.5 -80t77.5 -33t78 33t31 80 t-31 81t-78 34t-77.5 -34t-30.5 -81z" />
<glyph unicode="&#xbb;" horiz-adv-x="978" d="M92 213v190l203 119l-203 121v191l377 -232v-158zM510 213v190l203 119l-203 121v191l377 -232v-158z" />
<glyph unicode="&#xbc;" horiz-adv-x="1753" d="M27 631v217h166v332q-23 -29 -56 -41.5t-74 -12.5h-12v224h6q43 0 71 14t44 35.5t22.5 47.5t6.5 48h227v-647h160v-217h-561zM172 0l1079 1495h328l-1079 -1495h-328zM1038 170v207l342 487h219v-495h127v-199h-127v-170h-217v170h-344zM1280 369h102v147z" />
<glyph unicode="&#xbd;" horiz-adv-x="1783" d="M27 631v217h166v332q-23 -29 -56 -41.5t-74 -12.5h-12v224h6q43 0 71 14t44 35.5t22.5 47.5t6.5 48h227v-647h160v-217h-561zM172 0l1079 1495h328l-1079 -1495h-328zM1114 668q47 98 129 153.5t203 55.5q70 0 129 -19.5t100 -55.5t64.5 -84t23.5 -106q0 -61 -22.5 -108 t-58 -82t-78.5 -61.5t-84 -47.5q-51 -27 -90 -49t-44 -47h371v-217h-622v172q0 63 21.5 112.5t55 86.5t75.5 63.5t83 48.5q61 35 106.5 62.5t45.5 64.5q0 27 -19.5 45.5t-60.5 18.5q-47 0 -78 -35t-47 -76z" />
<glyph unicode="&#xbe;" horiz-adv-x="1767" d="M8 727l178 160q51 -55 123 -56q39 0 63.5 17.5t24.5 52.5t-32.5 50.5t-83.5 15.5h-91v204h86q102 0 103 70q0 61 -84 62q-33 0 -60.5 -15.5t-44.5 -40.5l-167 146q53 53 129.5 83.5t150.5 30.5q143 0 233.5 -68.5t90.5 -189.5q0 -100 -84 -168q49 -31 76.5 -78t27.5 -108 q0 -59 -22.5 -109.5t-64.5 -87t-102 -58.5t-134 -22q-88 0 -173 26t-143 83zM186 0l1080 1495h327l-1079 -1495h-328zM1053 170v207l342 487h219v-495h127v-199h-127v-170h-217v170h-344zM1294 369h103v147z" />
<glyph unicode="&#xbf;" horiz-adv-x="1054" d="M63 -61q0 96 28 158.5t69 107.5t90 79.5t90 78t68.5 102.5t27.5 151v23h252v-23q0 -125 -24.5 -206.5t-62.5 -137t-81 -92.5t-81 -71.5t-62.5 -73.5t-24.5 -101q0 -78 51.5 -128t139.5 -50q80 0 132 50.5t68 123.5l265 -88q-37 -150 -153.5 -242t-315.5 -92 q-104 0 -191.5 31t-151 87.5t-98.5 136t-35 176.5zM393 883q0 76 46 123t122 47t123 -47.5t47 -122.5q0 -76 -47 -122t-123 -46t-122 46t-46 122z" />
<glyph unicode="&#xc0;" horiz-adv-x="1404" d="M29 0l530 1495h287l530 -1495h-297l-90 260h-573l-90 -260h-297zM307 1946h262l234 -349h-189zM510 532h385l-193 558z" />
<glyph unicode="&#xc1;" horiz-adv-x="1404" d="M29 0l530 1495h287l530 -1495h-297l-90 260h-573l-90 -260h-297zM510 532h385l-193 558zM608 1597l234 349h262l-307 -349h-189z" />
<glyph unicode="&#xc2;" horiz-adv-x="1404" d="M29 0l530 1495h287l530 -1495h-297l-90 260h-573l-90 -260h-297zM371 1597l243 349h174l244 -349h-211l-121 181l-118 -181h-211zM510 532h385l-193 558z" />
<glyph unicode="&#xc3;" horiz-adv-x="1404" d="M29 0l530 1495h287l530 -1495h-297l-90 260h-573l-90 -260h-297zM354 1597q0 125 56.5 201t158.5 76q51 0 88 -15.5t68 -33.5q29 -18 54.5 -33.5t51.5 -15.5q55 0 56 90h162q0 -127 -53.5 -202t-161.5 -75q-59 0 -101.5 20.5t-77.5 41.5q-23 14 -43 24.5t-43 10.5 q-53 0 -53 -89h-162zM510 532h385l-193 558z" />
<glyph unicode="&#xc4;" horiz-adv-x="1404" d="M29 0l530 1495h287l530 -1495h-297l-90 260h-573l-90 -260h-297zM328 1733q0 74 45 119.5t119 45.5t119.5 -46t45.5 -119q0 -74 -46 -119t-119 -45q-74 0 -119 45t-45 119zM510 532h385l-193 558zM750 1733q0 74 45 119.5t118 45.5q74 0 120 -46t46 -119q0 -74 -46 -119 t-120 -45t-118.5 45t-44.5 119z" />
<glyph unicode="&#xc5;" horiz-adv-x="1404" d="M29 0l530 1495h287l530 -1495h-297l-90 260h-573l-90 -260h-297zM489 1798q0 47 17.5 88t47.5 71t70 47t85 17q47 0 88 -17t70.5 -47t47 -71t17.5 -88q0 -45 -17.5 -85t-47 -69.5t-70.5 -47t-88 -17.5q-45 0 -85 17.5t-70 47t-47.5 69.5t-17.5 85zM510 532h385l-193 558z M612 1798q0 -39 29 -67.5t68 -28.5q41 0 70.5 28.5t29.5 67.5q0 41 -29.5 70.5t-70.5 29.5q-39 0 -68 -29.5t-29 -70.5z" />
<glyph unicode="&#xc6;" horiz-adv-x="1910" d="M25 0l680 1495h1140v-272h-782l86 -336h696v-273h-626l86 -342h540v-272h-770l-63 258h-576l-114 -258h-297zM555 522h391l-139 565z" />
<glyph unicode="&#xc7;" horiz-adv-x="1505" d="M41 748q0 168 59.5 308t163 242.5t243.5 160t302 57.5q104 0 201.5 -27t182.5 -75t153.5 -116.5t117.5 -152.5l-250 -160q-63 117 -162.5 183.5t-242.5 66.5q-104 0 -193.5 -38t-154 -103.5t-101 -154.5t-36.5 -191q0 -100 35.5 -188.5t100 -154t152.5 -103.5t191 -38 q154 0 260 79t164 200l260 -137q-45 -88 -108.5 -162t-142.5 -129.5t-169 -89t-190 -41.5v-93q117 4 176 -42t59 -121q0 -47 -24.5 -88t-68.5 -70t-102 -45.5t-126 -16.5q-80 0 -157 34t-136 87l159 97q35 -29 69 -48.5t87 -19.5q45 0 78 17.5t33 43.5q0 55 -117 56h-105 v213q-152 18 -273.5 83.5t-207.5 167t-133 231.5t-47 278z" />
<glyph unicode="&#xc8;" horiz-adv-x="1034" d="M82 0v1495h887v-272h-602v-336h602v-273h-602v-342h602v-272h-887zM143 1946h263l233 -349h-188z" />
<glyph unicode="&#xc9;" horiz-adv-x="1034" d="M82 0v1495h887v-272h-602v-336h602v-273h-602v-342h602v-272h-887zM412 1597l233 349h262l-307 -349h-188z" />
<glyph unicode="&#xca;" horiz-adv-x="1034" d="M82 0v1495h887v-272h-602v-336h602v-273h-602v-342h602v-272h-887zM195 1597l243 349h174l244 -349h-211l-121 181l-118 -181h-211z" />
<glyph unicode="&#xcb;" horiz-adv-x="1034" d="M82 0v1495h887v-272h-602v-336h602v-273h-602v-342h602v-272h-887zM170 1737q0 74 45 120t119 46t120 -46.5t46 -119.5q0 -74 -46 -119t-120 -45t-119 45t-45 119zM592 1737q0 74 45 120t119 46t120 -46.5t46 -119.5q0 -74 -46.5 -119t-119.5 -45q-74 0 -119 45t-45 119z " />
<glyph unicode="&#xcc;" horiz-adv-x="468" d="M-166 1946h262l234 -349h-189zM92 0v1495h285v-1495h-285z" />
<glyph unicode="&#xcd;" horiz-adv-x="468" d="M92 0v1495h285v-1495h-285zM143 1597l234 349h262l-307 -349h-189z" />
<glyph unicode="&#xce;" horiz-adv-x="468" d="M-94 1597l244 349h174l243 -349h-211l-120 181l-119 -181h-211zM92 0v1495h285v-1495h-285z" />
<glyph unicode="&#xcf;" horiz-adv-x="468" d="M-141 1737q0 74 45 120t119 46t119.5 -46.5t45.5 -119.5q0 -74 -46 -119t-119 -45q-74 0 -119 45t-45 119zM92 0v1495h285v-1495h-285zM281 1737q0 74 45 120t118 46q74 0 120 -46.5t46 -119.5q0 -74 -46 -119t-120 -45t-118.5 45t-44.5 119z" />
<glyph unicode="&#xd0;" horiz-adv-x="1419" d="M41 692v158h139v645h408q190 0 336.5 -57.5t248 -157.5t153.5 -236.5t52 -295.5q0 -160 -57 -297.5t-160.5 -236.5t-246 -156.5t-314.5 -57.5h-420v692h-139zM465 264h102q121 0 218.5 37t166 101.5t105.5 153.5t37 192q0 106 -33 194t-99.5 152.5t-168 100.5t-238.5 36 h-90v-381h334v-158h-334v-428z" />
<glyph unicode="&#xd1;" horiz-adv-x="1406" d="M82 0v1495h324l634 -1006v1006h285v-1495h-303l-655 1038v-1038h-285zM352 1597q0 125 56.5 201t158.5 76q51 0 88 -15.5t68 -33.5q29 -18 54.5 -33.5t51.5 -15.5q55 0 56 90h162q0 -127 -53.5 -202t-162.5 -75q-59 0 -101 20.5t-77 41.5q-23 14 -43 24.5t-43 10.5 q-53 0 -53 -89h-162z" />
<glyph unicode="&#xd2;" horiz-adv-x="1611" d="M41 748q0 160 59.5 299t163 243.5t242.5 165t299 60.5t299 -60.5t243.5 -165t164 -244t59.5 -298.5q0 -160 -59.5 -300.5t-164 -244t-243.5 -163.5t-299 -60t-299 60t-242.5 163.5t-163 244t-59.5 300.5zM324 748q0 -100 37.5 -189.5t102 -155t153 -104.5t188.5 -39 t188 39t153.5 104.5t103.5 154.5t38 190q0 100 -38 189t-103.5 154.5t-153.5 104.5t-188 39t-188.5 -39t-153 -104.5t-102 -154.5t-37.5 -189zM403 1946h263l233 -349h-188z" />
<glyph unicode="&#xd3;" horiz-adv-x="1611" d="M41 748q0 160 59.5 299t163 243.5t242.5 165t299 60.5t299 -60.5t243.5 -165t164 -244t59.5 -298.5q0 -160 -59.5 -300.5t-164 -244t-243.5 -163.5t-299 -60t-299 60t-242.5 163.5t-163 244t-59.5 300.5zM324 748q0 -100 37.5 -189.5t102 -155t153 -104.5t188.5 -39 t188 39t153.5 104.5t103.5 154.5t38 190q0 100 -38 189t-103.5 154.5t-153.5 104.5t-188 39t-188.5 -39t-153 -104.5t-102 -154.5t-37.5 -189zM698 1597l234 349h262l-307 -349h-189z" />
<glyph unicode="&#xd4;" horiz-adv-x="1611" d="M41 748q0 160 59.5 299t163 243.5t242.5 165t299 60.5t299 -60.5t243.5 -165t164 -244t59.5 -298.5q0 -160 -59.5 -300.5t-164 -244t-243.5 -163.5t-299 -60t-299 60t-242.5 163.5t-163 244t-59.5 300.5zM324 748q0 -100 37.5 -189.5t102 -155t153 -104.5t188.5 -39 t188 39t153.5 104.5t103.5 154.5t38 190q0 100 -38 189t-103.5 154.5t-153.5 104.5t-188 39t-188.5 -39t-153 -104.5t-102 -154.5t-37.5 -189zM467 1597l244 349h174l243 -349h-210l-121 181l-119 -181h-211z" />
<glyph unicode="&#xd5;" horiz-adv-x="1611" d="M41 748q0 160 59.5 299t163 243.5t242.5 165t299 60.5t299 -60.5t243.5 -165t164 -244t59.5 -298.5q0 -160 -59.5 -300.5t-164 -244t-243.5 -163.5t-299 -60t-299 60t-242.5 163.5t-163 244t-59.5 300.5zM324 748q0 -100 37.5 -189.5t102 -155t153 -104.5t188.5 -39 t188 39t153.5 104.5t103.5 154.5t38 190q0 100 -38 189t-103.5 154.5t-153.5 104.5t-188 39t-188.5 -39t-153 -104.5t-102 -154.5t-37.5 -189zM446 1597q0 125 56.5 201t159.5 76q51 0 87.5 -15.5t67.5 -33.5q29 -18 54.5 -33.5t52.5 -15.5q55 0 55 90h162 q0 -127 -53.5 -202t-161.5 -75q-59 0 -101.5 20.5t-76.5 41.5q-23 14 -43.5 24.5t-42.5 10.5q-53 0 -54 -89h-162z" />
<glyph unicode="&#xd6;" horiz-adv-x="1611" d="M41 748q0 160 59.5 299t163 243.5t242.5 165t299 60.5t299 -60.5t243.5 -165t164 -244t59.5 -298.5q0 -160 -59.5 -300.5t-164 -244t-243.5 -163.5t-299 -60t-299 60t-242.5 163.5t-163 244t-59.5 300.5zM324 748q0 -100 37.5 -189.5t102 -155t153 -104.5t188.5 -39 t188 39t153.5 104.5t103.5 154.5t38 190q0 100 -38 189t-103.5 154.5t-153.5 104.5t-188 39t-188.5 -39t-153 -104.5t-102 -154.5t-37.5 -189zM436 1741q0 74 45 120t119 46t120 -46t46 -120t-46 -119t-120 -45t-119 45t-45 119zM858 1741q0 74 45 120t119 46t120 -46 t46 -120t-46 -119t-120 -45t-119 45t-45 119z" />
<glyph unicode="&#xd7;" horiz-adv-x="901" d="M70 958l166 166l215 -215l215 215l165 -166l-215 -215l213 -213l-165 -165l-213 213l-213 -213l-166 165l213 213z" />
<glyph unicode="&#xd8;" horiz-adv-x="1611" d="M41 748q0 160 59.5 299t163 243.5t242.5 165t299 60.5q121 0 228.5 -35t199.5 -97l180 222l121 -90l-184 -228q104 -104 162.5 -242.5t58.5 -297.5q0 -160 -59.5 -300.5t-164 -244t-243.5 -163.5t-299 -60q-117 0 -223.5 32.5t-198.5 91.5l-174 -213l-121 89l180 219 q-106 104 -166.5 245.5t-60.5 303.5zM324 748q0 -96 31.5 -179.5t90.5 -148.5l609 745q-55 33 -119 51.5t-131 18.5q-100 0 -188.5 -39t-153 -104.5t-102 -154.5t-37.5 -189zM563 326q107 -66 242 -66q100 0 188 39t153.5 104.5t103.5 154.5t38 190q0 92 -31.5 172.5 t-87.5 146.5z" />
<glyph unicode="&#xd9;" horiz-adv-x="1243" d="M82 518v977h285v-995q0 -53 19.5 -100.5t53 -82t79.5 -54t99 -19.5t100.5 19.5t82.5 54t55.5 81.5t20.5 101v995h284v-977q0 -133 -41 -234.5t-112.5 -169t-170.5 -101t-216 -33.5t-215.5 33.5t-171 101t-112.5 169t-40 234.5zM238 1946h262l233 -349h-188z" />
<glyph unicode="&#xda;" horiz-adv-x="1243" d="M82 518v977h285v-995q0 -53 19.5 -100.5t53 -82t79.5 -54t99 -19.5t100.5 19.5t82.5 54t55.5 81.5t20.5 101v995h284v-977q0 -133 -41 -234.5t-112.5 -169t-170.5 -101t-216 -33.5t-215.5 33.5t-171 101t-112.5 169t-40 234.5zM512 1597l233 349h263l-308 -349h-188z" />
<glyph unicode="&#xdb;" horiz-adv-x="1243" d="M82 518v977h285v-995q0 -53 19.5 -100.5t53 -82t79.5 -54t99 -19.5t100.5 19.5t82.5 54t55.5 81.5t20.5 101v995h284v-977q0 -133 -41 -234.5t-112.5 -169t-170.5 -101t-216 -33.5t-215.5 33.5t-171 101t-112.5 169t-40 234.5zM291 1597l244 349h174l243 -349h-211 l-120 181l-119 -181h-211z" />
<glyph unicode="&#xdc;" horiz-adv-x="1243" d="M82 518v977h285v-995q0 -53 19.5 -100.5t53 -82t79.5 -54t99 -19.5t100.5 19.5t82.5 54t55.5 81.5t20.5 101v995h284v-977q0 -133 -41 -234.5t-112.5 -169t-170.5 -101t-216 -33.5t-215.5 33.5t-171 101t-112.5 169t-40 234.5zM244 1737q0 74 45 120t119 46t119.5 -46.5 t45.5 -119.5q0 -74 -46 -119t-119 -45q-74 0 -119 45t-45 119zM666 1737q0 74 45 120t118 46q74 0 120 -46.5t46 -119.5q0 -74 -46 -119t-120 -45t-118.5 45t-44.5 119z" />
<glyph unicode="&#xdd;" horiz-adv-x="1288" d="M25 1495h313l305 -514l307 514h314l-480 -793v-702h-284v709zM541 1597l233 349h262l-307 -349h-188z" />
<glyph unicode="&#xde;" horiz-adv-x="1140" d="M82 0v1495h285v-258h245q104 0 191.5 -38t151 -102.5t99.5 -151.5t36 -185q0 -100 -36 -187.5t-99.5 -152t-151.5 -102t-193 -37.5h-243v-281h-285zM367 545h229q96 0 153.5 62.5t57.5 152.5q0 88 -57.5 150.5t-153.5 62.5h-229v-428z" />
<glyph unicode="&#xdf;" horiz-adv-x="1060" d="M-121 -209q63 0 102 6t58.5 25.5t26 56.5t6.5 96v1059q-4 100 24.5 184.5t86 144.5t144.5 94t201 34q100 0 182.5 -32t140.5 -87t91 -132t33 -169q0 -98 -42 -174t-118 -129l-6 -4q88 -37 149.5 -126t61.5 -206q0 -98 -35 -182t-98.5 -143.5t-151.5 -93t-194 -33.5 q-20 0 -49 1t-54 5v245h99q88 0 142 56.5t54 142.5q0 82 -65.5 141.5t-182.5 59.5h-47v254h47q104 0 162 54t58 132t-47.5 130t-133.5 52q-90 0 -139 -45t-49 -145v-1090q0 -125 -19.5 -210t-66.5 -137t-127 -74.5t-203 -22.5h-41v262z" />
<glyph unicode="&#xe0;" horiz-adv-x="1196" d="M41 512q0 135 45 235.5t116.5 167t161 98t175.5 31.5q100 0 177 -33.5t128 -86.5v100h280v-1024h-280v115q-51 -59 -130 -97t-179 -38q-82 0 -169 32.5t-160 98t-119 166t-46 235.5zM166 1475h262l234 -349h-189zM315 514q0 -59 20.5 -109.5t57.5 -87t87.5 -58 t109.5 -21.5q57 0 105 21.5t83 59t54.5 88t19.5 107.5t-19.5 107.5t-54.5 87t-83 58t-105 21.5q-59 0 -109.5 -20t-87.5 -57t-57.5 -87.5t-20.5 -109.5z" />
<glyph unicode="&#xe1;" horiz-adv-x="1196" d="M41 512q0 135 45 235.5t116.5 167t161 98t175.5 31.5q100 0 177 -33.5t128 -86.5v100h280v-1024h-280v115q-51 -59 -130 -97t-179 -38q-82 0 -169 32.5t-160 98t-119 166t-46 235.5zM315 514q0 -59 20.5 -109.5t57.5 -87t87.5 -58t109.5 -21.5q57 0 105 21.5t83 59 t54.5 88t19.5 107.5t-19.5 107.5t-54.5 87t-83 58t-105 21.5q-59 0 -109.5 -20t-87.5 -57t-57.5 -87.5t-20.5 -109.5zM430 1126l234 349h262l-308 -349h-188z" />
<glyph unicode="&#xe2;" horiz-adv-x="1196" d="M41 512q0 135 45 235.5t116.5 167t161 98t175.5 31.5q100 0 177 -33.5t128 -86.5v100h280v-1024h-280v115q-51 -59 -130 -97t-179 -38q-82 0 -169 32.5t-160 98t-119 166t-46 235.5zM293 1126l244 349h174l243 -349h-211l-120 181l-119 -181h-211zM315 514 q0 -59 20.5 -109.5t57.5 -87t87.5 -58t109.5 -21.5q57 0 105 21.5t83 59t54.5 88t19.5 107.5t-19.5 107.5t-54.5 87t-83 58t-105 21.5q-59 0 -109.5 -20t-87.5 -57t-57.5 -87.5t-20.5 -109.5z" />
<glyph unicode="&#xe3;" horiz-adv-x="1196" d="M41 512q0 135 45 235.5t116.5 167t161 98t175.5 31.5q100 0 177 -33.5t128 -86.5v100h280v-1024h-280v115q-51 -59 -130 -97t-179 -38q-82 0 -169 32.5t-160 98t-119 166t-46 235.5zM250 1126q0 125 56 201t159 76q51 0 88 -15.5t68 -33.5q29 -18 54 -33.5t52 -15.5 q55 0 55 90h162q0 -127 -53 -202t-162 -75q-59 0 -101 20.5t-77 41.5q-23 14 -43.5 24t-42.5 10q-53 0 -53 -88h-162zM315 514q0 -59 20.5 -109.5t57.5 -87t87.5 -58t109.5 -21.5q57 0 105 21.5t83 59t54.5 88t19.5 107.5t-19.5 107.5t-54.5 87t-83 58t-105 21.5 q-59 0 -109.5 -20t-87.5 -57t-57.5 -87.5t-20.5 -109.5z" />
<glyph unicode="&#xe4;" horiz-adv-x="1196" d="M41 512q0 135 45 235.5t116.5 167t161 98t175.5 31.5q100 0 177 -33.5t128 -86.5v100h280v-1024h-280v115q-51 -59 -130 -97t-179 -38q-82 0 -169 32.5t-160 98t-119 166t-46 235.5zM231 1266q0 74 45.5 120t118.5 46q74 0 120 -46.5t46 -119.5q0 -74 -46 -119t-120 -45 t-119 45t-45 119zM315 514q0 -59 20.5 -109.5t57.5 -87t87.5 -58t109.5 -21.5q57 0 105 21.5t83 59t54.5 88t19.5 107.5t-19.5 107.5t-54.5 87t-83 58t-105 21.5q-59 0 -109.5 -20t-87.5 -57t-57.5 -87.5t-20.5 -109.5zM653 1266q0 74 45 120t119 46t120 -46.5t46 -119.5 q0 -74 -46 -119t-120 -45t-119 45t-45 119z" />
<glyph unicode="&#xe5;" horiz-adv-x="1196" d="M41 512q0 135 45 235.5t116.5 167t161 98t175.5 31.5q100 0 177 -33.5t128 -86.5v100h280v-1024h-280v115q-51 -59 -130 -97t-179 -38q-82 0 -169 32.5t-160 98t-119 166t-46 235.5zM315 514q0 -59 20.5 -109.5t57.5 -87t87.5 -58t109.5 -21.5q57 0 105 21.5t83 59 t54.5 88t19.5 107.5t-19.5 107.5t-54.5 87t-83 58t-105 21.5q-59 0 -109.5 -20t-87.5 -57t-57.5 -87.5t-20.5 -109.5zM348 1350q0 47 17.5 88t47 70.5t69.5 47t85 17.5q47 0 88 -17.5t71 -47t47.5 -70.5t17.5 -88q0 -45 -17.5 -85t-47.5 -70t-71 -47.5t-88 -17.5 q-45 0 -85 17.5t-69.5 47.5t-47 70t-17.5 85zM471 1350q0 -39 28.5 -68t67.5 -29q41 0 71 29t30 68q0 41 -30 70.5t-71 29.5q-39 0 -67.5 -29.5t-28.5 -70.5z" />
<glyph unicode="&#xe6;" horiz-adv-x="1810" d="M41 272q0 72 23.5 125.5t66.5 91t102.5 65.5t131.5 46q61 16 121.5 30.5t107.5 30t75.5 35t28.5 47.5q0 33 -37.5 57.5t-113.5 24.5q-117 0 -167 -51t-50 -117v-6h-254v4q0 186 119.5 287.5t339.5 101.5q117 0 208 -33.5t146 -99.5q70 61 158 97t192 36q115 0 212 -41.5 t168 -113.5t110.5 -169t39.5 -208v-90h-792q23 -88 91.5 -142.5t182.5 -54.5q86 0 156 47t104 123l232 -94q-31 -72 -80 -131t-113.5 -101t-140.5 -65.5t-160 -23.5q-139 0 -246.5 54t-177.5 148q-53 -90 -162.5 -146t-246.5 -56q-98 0 -169 22.5t-117 61t-67.5 92 t-21.5 116.5zM317 281q0 -70 113 -70q57 0 107.5 24.5t87.5 58.5t58.5 71.5t21.5 66.5v49q-4 -14 -60.5 -35.5t-144.5 -44.5q-98 -23 -140.5 -49t-42.5 -71zM995 647h486q-31 74 -93.5 113t-146.5 39q-86 0 -149.5 -42t-96.5 -110z" />
<glyph unicode="&#xe7;" horiz-adv-x="1095" d="M41 512q0 111 41 208t113.5 169t169 113.5t206.5 41.5q88 0 165 -23.5t139.5 -66.5t110.5 -102t79 -131l-250 -107q-29 72 -94.5 118t-147.5 46q-55 0 -103 -20.5t-83 -57t-55.5 -85t-20.5 -103.5t20.5 -103.5t55.5 -85t83 -57t103 -20.5q82 0 147.5 46t94.5 118 l250 -107q-53 -125 -158.5 -210t-249.5 -107v-95q117 4 176.5 -42t59.5 -121q0 -47 -24.5 -88t-68.5 -70t-102.5 -45.5t-126.5 -16.5q-80 0 -156.5 34t-135.5 87l159 97q35 -29 69 -48.5t87 -19.5q45 0 78 17.5t33 43.5q0 55 -117 56h-105v213q-94 14 -175 61t-140 117 t-93 158t-34 188z" />
<glyph unicode="&#xe8;" horiz-adv-x="1144" d="M41 512q0 111 42 208t113.5 169t169 113.5t207.5 41.5q117 0 214.5 -40.5t167 -113.5t108.5 -169t39 -207v-102h-791q25 -86 93.5 -136.5t179.5 -50.5q86 0 151.5 43t100.5 117l223 -133q-66 -121 -185.5 -196.5t-291.5 -75.5q-121 0 -220.5 41.5t-170 113.5t-110.5 169 t-40 208zM193 1475h262l233 -349h-188zM324 637h495q-29 80 -91.5 121t-152.5 41t-154.5 -45t-96.5 -117z" />
<glyph unicode="&#xe9;" horiz-adv-x="1144" d="M41 512q0 111 42 208t113.5 169t169 113.5t207.5 41.5q117 0 214.5 -40.5t167 -113.5t108.5 -169t39 -207v-102h-791q25 -86 93.5 -136.5t179.5 -50.5q86 0 151.5 43t100.5 117l223 -133q-66 -121 -185.5 -196.5t-291.5 -75.5q-121 0 -220.5 41.5t-170 113.5t-110.5 169 t-40 208zM324 637h495q-29 80 -91.5 121t-152.5 41t-154.5 -45t-96.5 -117zM457 1126l233 349h262l-307 -349h-188z" />
<glyph unicode="&#xea;" horiz-adv-x="1144" d="M41 512q0 111 42 208t113.5 169t169 113.5t207.5 41.5q117 0 214.5 -40.5t167 -113.5t108.5 -169t39 -207v-102h-791q25 -86 93.5 -136.5t179.5 -50.5q86 0 151.5 43t100.5 117l223 -133q-66 -121 -185.5 -196.5t-291.5 -75.5q-121 0 -220.5 41.5t-170 113.5t-110.5 169 t-40 208zM233 1126l244 349h174l244 -349h-211l-121 181l-119 -181h-211zM324 637h495q-29 80 -91.5 121t-152.5 41t-154.5 -45t-96.5 -117z" />
<glyph unicode="&#xeb;" horiz-adv-x="1144" d="M41 512q0 111 42 208t113.5 169t169 113.5t207.5 41.5q117 0 214.5 -40.5t167 -113.5t108.5 -169t39 -207v-102h-791q25 -86 93.5 -136.5t179.5 -50.5q86 0 151.5 43t100.5 117l223 -133q-66 -121 -185.5 -196.5t-291.5 -75.5q-121 0 -220.5 41.5t-170 113.5t-110.5 169 t-40 208zM195 1266q0 74 45 120t118 46q74 0 120 -46.5t46 -119.5q0 -74 -46 -119t-120 -45t-118.5 45t-44.5 119zM324 637h495q-29 80 -91.5 121t-152.5 41t-154.5 -45t-96.5 -117zM616 1266q0 74 45.5 120t118.5 46q74 0 120 -46.5t46 -119.5q0 -74 -46 -119t-120 -45 t-119 45t-45 119z" />
<glyph unicode="&#xec;" d="M-178 1475h262l233 -349h-188zM72 0v1024h280v-1024h-280z" />
<glyph unicode="&#xed;" d="M72 0v1024h280v-1024h-280zM80 1126l233 349h262l-307 -349h-188z" />
<glyph unicode="&#xee;" d="M-119 1126l244 349h174l244 -349h-211l-121 181l-119 -181h-211zM72 0v1024h280v-1024h-280z" />
<glyph unicode="&#xef;" d="M-164 1264q0 74 45 120t119 46t120 -46.5t46 -119.5q0 -74 -46 -119t-120 -45t-119 45t-45 119zM72 0v1024h280v-1024h-280zM258 1264q0 74 45 120t119 46t120 -46.5t46 -119.5q0 -74 -46 -119t-120 -45t-119 45t-45 119z" />
<glyph unicode="&#xf0;" horiz-adv-x="1148" d="M41 510q0 113 38 206t105.5 160.5t158.5 105.5t198 38q53 0 97 -11.5t79 -31.5q-35 45 -76 91t-94 93l-141 -112l-99 96l135 108q-68 55 -146.5 116t-174.5 126h389q31 -25 59.5 -48.5t55.5 -47.5l141 112l96 -96l-137 -110q205 -205 291 -398.5t86 -380.5 q0 -117 -41 -216t-112.5 -173t-169 -115.5t-210.5 -41.5q-106 0 -201.5 39.5t-168 110.5t-115.5 168t-43 212zM315 510q0 -57 20.5 -105.5t56.5 -84t82 -55t97 -19.5t98.5 21.5t83 57t56 84t20.5 101.5q0 55 -19 104.5t-54 85t-81 57t-102 21.5q-51 0 -98 -19.5t-82 -55 t-56.5 -85t-21.5 -108.5z" />
<glyph unicode="&#xf1;" horiz-adv-x="1091" d="M72 0v1024h278v-115q49 63 122 99t161 36q182 0 284.5 -110.5t102.5 -308.5v-625h-285v588q0 104 -47 160.5t-141 56.5q-80 0 -137.5 -58.5t-57.5 -187.5v-559h-280zM201 1128q0 125 56 201t159 76q51 0 88 -15.5t67 -33.5q29 -18 54.5 -33.5t52.5 -15.5q55 0 55 90h162 q0 -127 -53.5 -202t-161.5 -75q-59 0 -101 20.5t-77 41.5q-23 14 -43.5 24.5t-42.5 10.5q-53 0 -54 -89h-161z" />
<glyph unicode="&#xf2;" horiz-adv-x="1142" d="M41 512q0 111 41 208t113.5 169t169 113.5t206.5 41.5q111 0 207 -41.5t169 -113.5t114 -169t41 -208t-41 -208t-114 -169t-169 -113.5t-207 -41.5t-207 41.5t-168.5 113.5t-113.5 169t-41 208zM178 1475h262l234 -349h-189zM315 512q0 -55 19.5 -103.5t54.5 -84t81 -57 t101 -21.5q53 0 100.5 21.5t82 57t55 84t20.5 103.5t-20.5 103.5t-55 84t-81.5 57t-101 21.5q-55 0 -101 -21.5t-81 -57t-54.5 -84t-19.5 -103.5z" />
<glyph unicode="&#xf3;" horiz-adv-x="1142" d="M41 512q0 111 41 208t113.5 169t169 113.5t206.5 41.5q111 0 207 -41.5t169 -113.5t114 -169t41 -208t-41 -208t-114 -169t-169 -113.5t-207 -41.5t-207 41.5t-168.5 113.5t-113.5 169t-41 208zM315 512q0 -55 19.5 -103.5t54.5 -84t81 -57t101 -21.5q53 0 100.5 21.5 t82 57t55 84t20.5 103.5t-20.5 103.5t-55 84t-81.5 57t-101 21.5q-55 0 -101 -21.5t-81 -57t-54.5 -84t-19.5 -103.5zM469 1126l233 349h263l-308 -349h-188z" />
<glyph unicode="&#xf4;" horiz-adv-x="1142" d="M41 512q0 111 41 208t113.5 169t169 113.5t206.5 41.5q111 0 207 -41.5t169 -113.5t114 -169t41 -208t-41 -208t-114 -169t-169 -113.5t-207 -41.5t-207 41.5t-168.5 113.5t-113.5 169t-41 208zM240 1126l243 349h174l244 -349h-211l-121 181l-118 -181h-211zM315 512 q0 -55 19.5 -103.5t54.5 -84t81 -57t101 -21.5q53 0 100.5 21.5t82 57t55 84t20.5 103.5t-20.5 103.5t-55 84t-81.5 57t-101 21.5q-55 0 -101 -21.5t-81 -57t-54.5 -84t-19.5 -103.5z" />
<glyph unicode="&#xf5;" horiz-adv-x="1142" d="M41 512q0 111 41 208t113.5 169t169 113.5t206.5 41.5q111 0 207 -41.5t169 -113.5t114 -169t41 -208t-41 -208t-114 -169t-169 -113.5t-207 -41.5t-207 41.5t-168.5 113.5t-113.5 169t-41 208zM233 1126q0 125 56.5 201t159.5 76q51 0 87.5 -15.5t67.5 -33.5 q29 -18 54.5 -33.5t52.5 -15.5q55 0 55 90h162q0 -127 -53.5 -202t-161.5 -75q-59 0 -101.5 20.5t-76.5 41.5q-23 14 -43.5 24t-42.5 10q-53 0 -54 -88h-162zM315 512q0 -55 19.5 -103.5t54.5 -84t81 -57t101 -21.5q53 0 100.5 21.5t82 57t55 84t20.5 103.5t-20.5 103.5 t-55 84t-81.5 57t-101 21.5q-55 0 -101 -21.5t-81 -57t-54.5 -84t-19.5 -103.5z" />
<glyph unicode="&#xf6;" horiz-adv-x="1142" d="M41 512q0 111 41 208t113.5 169t169 113.5t206.5 41.5q111 0 207 -41.5t169 -113.5t114 -169t41 -208t-41 -208t-114 -169t-169 -113.5t-207 -41.5t-207 41.5t-168.5 113.5t-113.5 169t-41 208zM199 1266q0 74 45 120t118 46q74 0 120 -46.5t46 -119.5q0 -74 -46 -119 t-120 -45t-118.5 45t-44.5 119zM315 512q0 -55 19.5 -103.5t54.5 -84t81 -57t101 -21.5q53 0 100.5 21.5t82 57t55 84t20.5 103.5t-20.5 103.5t-55 84t-81.5 57t-101 21.5q-55 0 -101 -21.5t-81 -57t-54.5 -84t-19.5 -103.5zM621 1266q0 74 45 120t118 46q74 0 120 -46.5 t46 -119.5q0 -74 -46 -119t-120 -45t-118.5 45t-44.5 119z" />
<glyph unicode="&#xf7;" horiz-adv-x="901" d="M72 627v239h757v-239h-757zM315 422q0 61 37 100t99 39q61 0 100 -39t39 -100t-39 -98t-100 -37t-98.5 37t-37.5 98zM315 1067q0 61 37 100t99 39q61 0 100 -39t39 -100t-39 -98t-100 -37t-98.5 37t-37.5 98z" />
<glyph unicode="&#xf8;" horiz-adv-x="1142" d="M41 512q0 111 41 208t113.5 169t169 113.5t206.5 41.5q78 0 147.5 -20t129.5 -57l104 129l113 -88l-107 -131q68 -72 106 -165.5t38 -199.5q0 -111 -41 -208t-114 -169t-169 -113.5t-207 -41.5q-76 0 -144.5 19t-127.5 54l-115 -141l-112 86l116 143q-70 72 -108.5 167 t-38.5 204zM309 512q0 -90 47 -160l326 408q-49 25 -111 24q-55 0 -103 -21.5t-84 -58t-55.5 -87t-19.5 -105.5zM465 262q51 -22 106 -22t103.5 21.5t84.5 58t56.5 87t20.5 105.5q0 82 -45 154z" />
<glyph unicode="&#xf9;" horiz-adv-x="1091" d="M72 399v625h284v-588q0 -104 47.5 -160.5t141.5 -56.5q80 0 137 58.5t57 187.5v559h281v-1024h-279v113q-51 -61 -122.5 -97t-159.5 -36q-182 0 -284.5 110.5t-102.5 308.5zM150 1475h262l233 -349h-188z" />
<glyph unicode="&#xfa;" horiz-adv-x="1091" d="M72 399v625h284v-588q0 -104 47.5 -160.5t141.5 -56.5q80 0 137 58.5t57 187.5v559h281v-1024h-279v113q-51 -61 -122.5 -97t-159.5 -36q-182 0 -284.5 110.5t-102.5 308.5zM440 1126l234 349h262l-307 -349h-189z" />
<glyph unicode="&#xfb;" horiz-adv-x="1091" d="M72 399v625h284v-588q0 -104 47.5 -160.5t141.5 -56.5q80 0 137 58.5t57 187.5v559h281v-1024h-279v113q-51 -61 -122.5 -97t-159.5 -36q-182 0 -284.5 110.5t-102.5 308.5zM213 1126l244 349h174l243 -349h-210l-121 181l-119 -181h-211z" />
<glyph unicode="&#xfc;" horiz-adv-x="1091" d="M72 399v625h284v-588q0 -104 47.5 -160.5t141.5 -56.5q80 0 137 58.5t57 187.5v559h281v-1024h-279v113q-51 -61 -122.5 -97t-159.5 -36q-182 0 -284.5 110.5t-102.5 308.5zM172 1266q0 74 45 120t119 46t120 -46.5t46 -119.5q0 -74 -46 -119t-120 -45t-119 45t-45 119z M594 1266q0 74 45 120t119 46t120 -46.5t46 -119.5q0 -74 -46.5 -119t-119.5 -45q-74 0 -119 45t-45 119z" />
<glyph unicode="&#xfd;" horiz-adv-x="1128" d="M25 1024h294l252 -631l236 631h291l-594 -1497h-281l209 518zM463 1126l233 349h262l-307 -349h-188z" />
<glyph unicode="&#xfe;" horiz-adv-x="1179" d="M72 -471v1966h280v-588q49 61 128 99t184 38q86 0 172 -31.5t154.5 -98t112.5 -166t44 -234.5t-45 -236.5t-114.5 -167t-154.5 -98t-165 -32.5q-104 0 -184.5 38.5t-131.5 104.5v-594h-280zM344 514q0 -57 19.5 -107.5t54.5 -88t83 -59t105 -21.5t107.5 21.5t87.5 58 t58.5 87t21.5 109.5t-21.5 109.5t-58.5 87.5t-87 57t-108 20q-57 0 -105 -21.5t-83 -58t-54.5 -87t-19.5 -107.5z" />
<glyph unicode="&#xff;" horiz-adv-x="1128" d="M25 1024h294l252 -631l236 631h291l-594 -1497h-281l209 518zM195 1266q0 74 45 120t118 46q74 0 120 -46.5t46 -119.5q0 -74 -46 -119t-120 -45t-118.5 45t-44.5 119zM616 1266q0 74 45.5 120t118.5 46q74 0 120 -46.5t46 -119.5q0 -74 -46 -119t-120 -45t-119 45 t-45 119z" />
<glyph unicode="&#x152;" horiz-adv-x="2240" d="M41 748q0 160 59.5 299t163 243.5t242.5 165t299 60.5q145 0 267 -50.5t216 -136.5v166h887v-272h-602v-336h602v-273h-602v-342h602v-272h-887v164q-94 -86 -216 -135t-267 -49q-160 0 -299 60t-242.5 163.5t-163 244t-59.5 300.5zM324 748q0 -100 37.5 -189.5t102 -155 t153 -104.5t188.5 -39t188 39t153.5 104.5t103.5 154.5t38 190v20q-4 96 -43 181t-104.5 148.5t-151.5 100.5t-184 37q-100 0 -188.5 -39t-153 -104.5t-102 -154.5t-37.5 -189z" />
<glyph unicode="&#x153;" horiz-adv-x="1933" d="M41 512q0 111 41 208t113.5 169t169 113.5t206.5 41.5q129 0 228.5 -49t167.5 -133q72 86 172 134t229 48q117 0 214 -40.5t166 -113.5t106.5 -169t37.5 -207v-100h-790q23 -86 91.5 -137.5t180.5 -51.5q78 0 138.5 35t97.5 98l233 -129q-78 -115 -192.5 -182t-280.5 -67 q-133 0 -234.5 46t-170.5 132q-70 -82 -168.5 -130t-225.5 -48q-111 0 -207 41.5t-168.5 113.5t-113.5 169t-41 208zM311 512q0 -55 19.5 -103.5t55.5 -85t83 -57t102 -20.5t102.5 20.5t82.5 57t55 85t20 103.5t-20 103.5t-55 85t-82 57t-103 20.5q-55 0 -102 -20.5t-83 -57 t-55.5 -85t-19.5 -103.5zM1114 635h496q-27 82 -89.5 123t-152.5 41t-156.5 -45t-97.5 -119z" />
<glyph unicode="&#x178;" horiz-adv-x="1288" d="M25 1495h313l305 -514l307 514h314l-480 -793v-702h-284v709zM268 1731q0 74 45 119.5t119 45.5t120 -46t46 -119q0 -74 -46 -119t-120 -45t-119 45t-45 119zM690 1731q0 74 45 119.5t119 45.5t120 -46t46 -119q0 -74 -46 -119t-120 -45t-119 45t-45 119z" />
<glyph unicode="&#x2c6;" horiz-adv-x="964" d="M152 1126l243 349h174l244 -349h-211l-121 181l-119 -181h-210z" />
<glyph unicode="&#x2dc;" horiz-adv-x="964" d="M129 1126q0 125 56.5 201t158.5 76q51 0 88 -15.5t68 -33.5q29 -18 54.5 -33.5t51.5 -15.5q55 0 56 90h161q0 -127 -53 -202t-162 -75q-59 0 -101 20.5t-77 41.5q-23 14 -43 24t-43 10q-53 0 -53 -88h-162z" />
<glyph unicode="&#x2000;" horiz-adv-x="1010" />
<glyph unicode="&#x2001;" horiz-adv-x="2021" />
<glyph unicode="&#x2002;" horiz-adv-x="1010" />
<glyph unicode="&#x2003;" horiz-adv-x="2021" />
<glyph unicode="&#x2004;" horiz-adv-x="673" />
<glyph unicode="&#x2005;" horiz-adv-x="505" />
<glyph unicode="&#x2006;" horiz-adv-x="336" />
<glyph unicode="&#x2007;" horiz-adv-x="336" />
<glyph unicode="&#x2008;" horiz-adv-x="252" />
<glyph unicode="&#x2009;" horiz-adv-x="404" />
<glyph unicode="&#x200a;" horiz-adv-x="112" />
<glyph unicode="&#x2010;" horiz-adv-x="901" d="M72 401v240h757v-240h-757z" />
<glyph unicode="&#x2011;" horiz-adv-x="901" d="M72 401v240h757v-240h-757z" />
<glyph unicode="&#x2012;" horiz-adv-x="901" d="M72 401v240h757v-240h-757z" />
<glyph unicode="&#x2013;" horiz-adv-x="962" d="M72 401v240h819v-240h-819z" />
<glyph unicode="&#x2014;" horiz-adv-x="1372" d="M72 401v240h1228v-240h-1228z" />
<glyph unicode="&#x2018;" d="M45 1495h248l69 -418h-174z" />
<glyph unicode="&#x2019;" d="M55 1077l70 418h248l-144 -418h-174z" />
<glyph unicode="&#x201a;" d="M43 -240l70 418h247l-143 -418h-174z" />
<glyph unicode="&#x201c;" horiz-adv-x="757" d="M53 1495h248l70 -418h-174zM387 1495h248l70 -418h-175z" />
<glyph unicode="&#x201d;" horiz-adv-x="757" d="M55 1077l70 418h248l-144 -418h-174zM389 1077l70 418h248l-144 -418h-174z" />
<glyph unicode="&#x201e;" horiz-adv-x="757" d="M43 -240l70 418h247l-143 -418h-174zM377 -240l69 418h248l-143 -418h-174z" />
<glyph unicode="&#x2022;" horiz-adv-x="815" d="M176 522q0 47 18.5 89t50 74t73.5 50.5t90 18.5q47 0 89 -18.5t73.5 -50.5t50 -74t18.5 -89t-18.5 -89t-50 -73.5t-73.5 -50t-89 -18.5t-89.5 18.5t-74 50t-50 73.5t-18.5 89z" />
<glyph unicode="&#x2026;" horiz-adv-x="1230" d="M43 139q0 76 46 123t122 47t123 -47t47 -123t-47 -122t-123 -46t-122 46t-46 122zM446 139q0 76 46.5 123t121.5 47q76 0 123 -47t47 -123t-47 -122t-123 -46t-122 46t-46 122zM848 139q0 76 46 123t122 47t123 -47t47 -123t-47 -122t-123 -46t-122 46t-46 122z" />
<glyph unicode="&#x202f;" horiz-adv-x="404" />
<glyph unicode="&#x2039;" horiz-adv-x="561" d="M106 436v174l349 244v-211l-181 -121l181 -119v-210z" />
<glyph unicode="&#x203a;" horiz-adv-x="561" d="M106 195v211l181 118l-181 121v211l349 -244v-174z" />
<glyph unicode="&#x205f;" horiz-adv-x="505" />
<glyph unicode="&#x20ac;" horiz-adv-x="1204" d="M63 434v223h187v181h-187v223h189q8 98 48 181t106.5 143.5t156.5 95.5t197 35q123 0 219 -43t164 -117l-215 -193q-29 33 -72 52.5t-96 19.5q-94 0 -149.5 -49t-71.5 -125h456l-39 -223h-421v-181h395l-35 -223h-358q12 -76 66 -124t151 -48q66 0 103.5 27.5t66.5 66.5 l256 -168q-63 -98 -168 -153t-256 -55q-119 0 -211 32.5t-155.5 93t-98.5 143.5t-41 185h-187z" />
<glyph unicode="&#x2122;" horiz-adv-x="1327" d="M51 1309v186h490v-186h-144v-408h-198v408h-148zM602 901v594h191l139 -182l149 182h174v-594h-200v283l-127 -142l-125 142v-283h-201z" />
<glyph unicode="&#x25fc;" horiz-adv-x="1024" d="M0 0v1024h1024v-1024h-1024z" />
<glyph unicode="&#xfb01;" horiz-adv-x="1153" d="M51 772v252h174v27q0 125 22.5 210t75 137t138.5 74.5t215 22.5h22v-262q-66 0 -103.5 -6t-57 -25.5t-25.5 -56.5t-6 -96v-25h192v-252h-192v-772h-281v772h-174zM772 1294q0 76 46 123t122 47t123 -47t47 -123t-47 -122t-123 -46t-122 46t-46 122zM801 0v1024h280v-1024 h-280z" />
<glyph unicode="&#xfb02;" horiz-adv-x="1153" d="M51 772v252h174v27q0 125 22.5 210t75 137t138.5 74.5t215 22.5h22v-262q-66 0 -103.5 -6t-57 -25.5t-25.5 -56.5t-6 -96v-25h192v-252h-192v-772h-281v772h-174zM801 0v1495h280v-1495h-280z" />
</font>
</defs>
</svg>
